a b c d e f g h i j k l m n o p q r s t u v w x y z 0-9

Jawaan (2018) Hindi - 720p - WEB-HD - AVC - AAC-GM Exclusive

  • Views: 123
  • Author: stev
  • Date: 28-07-2018, 02:24
  • Category: South Indian Hindi Dub Movies
  • Rating:
    Description of the movie:
    Jawaan (2018) Hindi - 720p - WEB-HD - AVC - AAC-GM Exclusive





    Format                      : MPEG-4
    Format profile              : Base Media / Version 2
    Codec ID                    : mp42 (isom/mp42)
    File size                   : 777 MiB
    Duration                    : 1 h 44 min
    Overall bit rate mode       : Variable
    Overall bit rate            : 1 041 kb/s
    Encoded date                : UTC 2018-07-27 20:06:50
    Tagged date                 : UTC 2018-07-27 20:06:50
    gsst                        : 0
    gstd                        : 6260680
    
    Video
    ID                          : 1
    Format                      : AVC
    Format/Info                 : Advanced Video Codec
    Format profile              : [email protected]
    Format settings, CABAC      : Yes
    Format settings, RefFrames  : 3 frames
    Codec ID                    : avc1
    Codec ID/Info               : Advanced Video Coding
    Duration                    : 1 h 44 min
    Bit rate                    : 912 kb/s
    Width                       : 1 280 pixels
    Height                      : 720 pixels
    Display aspect ratio        : 16:9
    Frame rate mode             : Constant
    Frame rate                  : 25.000 FPS
    Color space                 : YUV
    Chroma subsampling          : 4:2:0
    Bit depth                   : 8 bits
    Scan type                   : Progressive
    Bits/(Pixel*Frame)          : 0.040
    Stream size                 : 680 MiB (88%)
    Title                       : ISO Media file produced by Google Inc. Created on: 07/27/2018.
    Encoded date                : UTC 2018-07-27 20:06:50
    Tagged date                 : UTC 2018-07-27 20:06:50
    Color range                 : Limited
    Color primaries             : BT.709
    Transfer characteristics    : BT.709
    Matrix coefficients         : BT.709
    
    Audio
    ID                          : 2
    Format                      : AAC
    Format/Info                 : Advanced Audio Codec
    Format profile              : LC
    Codec ID                    : 40
    Duration                    : 1 h 44 min
    Bit rate mode               : Variable
    Bit rate                    : 126 kb/s
    Channel(s)                  : 2 channels
    Channel positions           : Front: L R
    Sampling rate               : 44.1 kHz
    Frame rate                  : 43.066 FPS (1024 SPF)
    Compression mode            : Lossy
    Stream size                 : 93.7 MiB (12%)
    Title                       : ISO Media file produced by Google Inc. Created on: 07/27/2018.
    Language                    : English
    Encoded date                : UTC 2018-07-27 20:06:50
    Tagged date                 : UTC 2018-07-27 20:06:50
    
    

    Jawaan (2018) Hindi - 720p - WEB-HD - AVC - AAC-GM ExclusiveJawaan (2018) Hindi - 720p - WEB-HD - AVC - AAC-GM ExclusiveJawaan (2018) Hindi - 720p - WEB-HD - AVC - AAC-GM ExclusiveJawaan (2018) Hindi - 720p - WEB-HD - AVC - AAC-GM ExclusiveJawaan (2018) Hindi - 720p - WEB-HD - AVC - AAC-GM ExclusiveJawaan (2018) Hindi - 720p - WEB-HD - AVC - AAC-GM Exclusive


    SINGLE DIRECT FAST LINKS
    
    http://www.heroupload.us/1c4be50ab28f944e/Jawaan.2018.Hindi.720p.WEB-HD.AVC.AAC-GM.Exclusive.MP4


    
    http://filefloater.com/2zZy/Jawaan.2018.Hindi.720p.WEB-HD.AVC.AAC-GM.Exclusive.MP4





    Buy Premium From My Links & Support Me

    Comments

    Add Comment!


    Add comment

    Name:*
    E-Mail:
    Comment:
    • winkwinkedsmileam
      belayfeelfellowlaughing
      lollovenorecourse
      requestsadtonguewassat
      cryingwhatbullyangry
    Security Code: *
    reload, if the code cannot be seen