a b c d e f g h i j k l m n o p q r s t u v w x y z 0-9

Khushi (2001) 720p UNCUT HDRip x264 [Dual Audio][Hindi+Telugu] BHD Exclusive

  • Views: 7
  • Author: stev
  • Date: 5-10-2019, 18:32
  • Category: South Indian Hindi Dub Movies
  • Rating:
    Description of the movie:
    Khushi (2001) 720p UNCUT HDRip x264 [Dual Audio][Hindi+Telugu] BHD Exclusive






    
    Video
    ID : 1
    Format : AVC
    Format/Info : Advanced Video Codec
    Format profile : [email protected]
    Format settings : CABAC / 5 Ref Frames
    Format settings, CABAC : Yes
    Format settings, Reference frames : 5 frames
    Codec ID : V_MPEG4/ISO/AVC
    Duration : 2 h 56 min
    Width : 1 280 pixels
    Height : 560 pixels
    Display aspect ratio : 2.25:1
    Frame rate mode : Constant
    Frame rate : 23.810 FPS
    Color space : YUV
    Chroma subsampling : 4:2:0
    Bit depth : 8 bits
    Scan type : Progressive
    Bits/(Pixel*Frame) : 0.059
    Stream size : 1.23 GiB (78%)
    Writing library : x264 core
    Color range : Limited
    Color primaries : BT.709
    Transfer characteristics : BT.709
    Matrix coefficients : BT.709
    
    Audio #1
    ID : 2
    Format : E-AC-3
    Format/Info : Enhanced AC-3
    Commercial name : Dolby Digital Plus
    Codec ID : A_EAC3
    Duration : 2 h 56 min
    Bit rate mode : Constant
    Bit rate : 160 kb/s
    Channel(s) : 2 channels
    Channel layout : L R
    Sampling rate : 48.0 kHz
    Frame rate : 31.250 FPS (1536 SPF)
    Compression mode : Lossy
    Stream size : 202 MiB (12%)
    Language : Hindi
    Service kind : Complete Main
    Default : Yes
    Forced : Yes
    
    Audio #2
    ID : 3
    Format : AAC LC
    Format/Info : Advanced Audio Codec Low Complexity
    Codec ID : A_AAC-2
    Duration : 2 h 56 min
    Bit rate : 125 kb/s
    Channel(s) : 2 channels
    Channel layout : L R
    Sampling rate : 48.0 kHz
    Frame rate : 46.875 FPS (1024 SPF)
    Compression mode : Lossy
    Stream size : 158 MiB (10%)
    Language : Telugu
    Default : No
    Forced : No 



    Khushi (2001) 720p UNCUT HDRip x264 [Dual Audio][Hindi+Telugu] BHD ExclusiveKhushi (2001) 720p UNCUT HDRip x264 [Dual Audio][Hindi+Telugu] BHD Exclusive
    Khushi (2001) 720p UNCUT HDRip x264 [Dual Audio][Hindi+Telugu] BHD Exclusive
    Khushi (2001) 720p UNCUT HDRip x264 [Dual Audio][Hindi+Telugu] BHD Exclusive
    Khushi (2001) 720p UNCUT HDRip x264 [Dual Audio][Hindi+Telugu] BHD Exclusive
    Khushi (2001) 720p UNCUT HDRip x264 [Dual Audio][Hindi+Telugu] BHD Exclusive
    Khushi (2001) 720p UNCUT HDRip x264 [Dual Audio][Hindi+Telugu] BHD Exclusive
    Khushi (2001) 720p UNCUT HDRip x264 [Dual Audio][Hindi+Telugu] BHD ExclusiveKhushi (2001) 720p UNCUT HDRip x264 [Dual Audio][Hindi+Telugu] BHD Exclusive
    Khushi (2001) 720p UNCUT HDRip x264 [Dual Audio][Hindi+Telugu] BHD ExclusiveKhushi (2001) 720p UNCUT HDRip x264 [Dual Audio][Hindi+Telugu] BHD Exclusive

    SINGLE DIRECT FAST LINKS

    
    https://www.heroupload.com/f408e33d058c6765/Kushi.2001.720p.UNCUT.HDRip.x264.Dual.Audio.Hindi.DD2.0+Telugu.DD2.0-BHD.mkv



    Comments

    Add Comment!


    Add comment

    Name:*
    E-Mail:
    Comment:
    • winkwinkedsmileam
      belayfeelfellowlaughing
      lollovenorecourse
      requestsadtonguewassat
      cryingwhatbullyangry
    Security Code: *
    reload, if the code cannot be seen