a b c d e f g h i j k l m n o p q r s t u v w x y z 0-9

Bharat (2019) 1080p - HDRip - AVC - DD5.1 - ESub-BollywoodA2z

  • Views: 26
  • Author: stev
  • Date: 11-08-2019, 14:22
  • Category: B / 2019 / Bollywood BluRay - Full HD
  • Rating:
    Description of the movie:
    Bharat (2019) 1080p - HDRip - AVC - DD5.1 - ESub-BollywoodA2z






    Format                                   : Matroska
    Format version                           : Version 4
    File size                                : 2.58 GiB
    Duration                                 : 2 h 34 min
    Overall bit rate                         : 2 391 kb/s
    Encoded date                             : UTC 2019-08-10 11:39:43
    Writing application                      : mkvmerge v35.0.0 ('All The Love In The World') 64-bit
    Writing library                          : libebml v1.3.9 + libmatroska v1.5.2
    
    Video
    ID                                       : 1
    Format                                   : AVC
    Format/Info                              : Advanced Video Codec
    Format profile                           : [email protected]
    Format settings                          : CABAC / 4 Ref Frames
    Format settings, CABAC                   : Yes
    Format settings, Reference frames        : 4 frames
    Codec ID                                 : V_MPEG4/ISO/AVC
    Duration                                 : 2 h 34 min
    Bit rate                                 : 2 200 kb/s
    Width                                    : 1 920 pixels
    Height                                   : 816 pixels
    Display aspect ratio                     : 2.35:1
    Frame rate mode                          : Constant
    Frame rate                               : 24.000 FPS
    Color space                              : YUV
    Chroma subsampling                       : 4:2:0
    Bit depth                                : 8 bits
    Scan type                                : Progressive
    Bits/(Pixel*Frame)                       : 0.059
    Stream size                              : 2.37 GiB (92%)
    Writing library                          : x264 core 155 r2901 7d0ff22
    Encoding settings                        : cabac=1 / ref=1 / deblock=1:0:0 / analyse=0x3:0x113 / me=hex / subme=2 / psy=1 / psy_rd=1.00:0.00 / mixed_ref=0 / me_range=16 / chroma_me=1 / trellis=0 / 8x8dct=1 / cqm=0 / deadzone=21,11 / fast_pskip=1 / chroma_qp_offset=0 / threads=25 / lookahead_threads=6 / sliced_threads=0 / nr=0 / decimate=1 / interlaced=0 / bluray_compat=0 / constrained_intra=0 / bframes=3 / b_pyramid=2 / b_adapt=1 / b_bias=0 / direct=1 / weightb=1 / open_gop=0 / weightp=1 / keyint=240 / keyint_min=24 / scenecut=40 / intra_refresh=0 / rc_lookahead=10 / rc=abr / mbtree=1 / bitrate=2200 / ratetol=1.0 / qcomp=0.60 / qpmin=0 / qpmax=69 / qpstep=4 / vbv_maxrate=25000 / vbv_bufsize=31250 / nal_hrd=none / filler=0 / ip_ratio=1.40 / aq=1:1.00
    Language                                 : Hindi
    Default                                  : Yes
    Forced                                   : No
    Color range                              : Limited
    Color primaries                          : BT.709
    Transfer characteristics                 : BT.709
    Matrix coefficients                      : BT.709
    
    Audio
    ID                                       : 2
    Format                                   : E-AC-3
    Format/Info                              : Enhanced AC-3
    Commercial name                          : Dolby Digital Plus
    Codec ID                                 : A_EAC3
    Duration                                 : 2 h 34 min
    Bit rate mode                            : Constant
    Bit rate                                 : 192 kb/s
    Channel(s)                               : 6 channels
    Channel layout                           : L R C LFE Ls Rs
    Sampling rate                            : 48.0 kHz
    Frame rate                               : 31.250 FPS (1536 SPF)
    Compression mode                         : Lossy
    Stream size                              : 212 MiB (8%)
    Language                                 : Hindi
    Service kind                             : Complete Main
    Default                                  : Yes
    Forced                                   : No
    
    Text
    ID                                       : 3
    Format                                   : UTF-8
    Codec ID                                 : S_TEXT/UTF8
    Codec ID/Info                            : UTF-8 Plain Text
    Duration                                 : 2 h 27 min
    Bit rate                                 : 60 b/s
    Count of elements                        : 2124
    Stream size                              : 65.3 KiB (0%)
    Language                                 : English
    Default                                  : Yes
    Forced                                   : No
    
    


    Bharat (2019) 1080p - HDRip - AVC - DD5.1 - ESub-BollywoodA2z
    Bharat (2019) 1080p - HDRip - AVC - DD5.1 - ESub-BollywoodA2z
    Bharat (2019) 1080p - HDRip - AVC - DD5.1 - ESub-BollywoodA2z
    Bharat (2019) 1080p - HDRip - AVC - DD5.1 - ESub-BollywoodA2z
    Bharat (2019) 1080p - HDRip - AVC - DD5.1 - ESub-BollywoodA2z
    Bharat (2019) 1080p - HDRip - AVC - DD5.1 - ESub-BollywoodA2z
    Bharat (2019) 1080p - HDRip - AVC - DD5.1 - ESub-BollywoodA2z



    SINGLE DIRECT FAST LINKS

    
    https://www.heroupload.com/99e21e3064739d51/BHARAT.2019.Hindi.HDRip.1080p.x264.DD5.1.ESub-BollywoodA2z.mkv



    Buy Premium From My Links & Support Me

    Comments

    Add Comment!


    Add comment

    Name:*
    E-Mail:
    Comment:
    • winkwinkedsmileam
      belayfeelfellowlaughing
      lollovenorecourse
      requestsadtonguewassat
      cryingwhatbullyangry
    Security Code: *
    reload, if the code cannot be seen