a b c d e f g h i j k l m n o p q r s t u v w x y z 0-9

Mard Ko Dard Nahin Hota (2018) 1080p Blu-ray x264 TrueHD 5.1-DDR Exclusive

  • Views: 41
  • Author: stev
  • Date: 1-07-2019, 13:31
  • Category: Bollywood BluRay - Full HD
  • Rating:
    Description of the movie:
    Mard Ko Dard Nahin Hota (2018) 1080p Blu-ray x264 TrueHD 5.1-DDR Exclusive





    Format                      : Matroska
    Format version              : Version 4
    File size                   : 12.0 GiB
    Duration                    : 2 h 7 min
    Overall bit rate mode       : Variable
    Overall bit rate            : 13.5 Mb/s
    Encoded date                : UTC 2019-06-30 19:35:18
    Writing application         : mkvmerge v35.0.0 ('All The Love In The World') 64-bit
    Writing library             : libebml v1.3.9 + libmatroska v1.5.2
    
    Video
    ID                          : 1
    Format                      : AVC
    Format/Info                 : Advanced Video Codec
    Format profile              : [email protected]
    Format settings             : CABAC / 3 Ref Frames
    Format settings, CABAC      : Yes
    Format settings, Reference  : 3 frames
    Codec ID                    : V_MPEG4/ISO/AVC
    Duration                    : 2 h 7 min
    Bit rate                    : 9 907 kb/s
    Width                       : 1 920 pixels
    Height                      : 1 032 pixels
    Display aspect ratio        : 1.85:1
    Frame rate mode             : Constant
    Frame rate                  : 24.000 FPS
    Color space                 : YUV
    Chroma subsampling          : 4:2:0
    Bit depth                   : 8 bits
    Scan type                   : Progressive
    Bits/(Pixel*Frame)          : 0.208
    Stream size                 : 8.82 GiB (74%)
    Language                    : English
    Default                     : Yes
    Forced                      : No
    Color range                 : Limited
    Color primaries             : BT.709
    Transfer characteristics    : BT.709
    Matrix coefficients         : BT.709
    
    Audio #1
    ID                          : 2
    Format                      : MLP FBA
    Format/Info                 : Meridian Lossless Packing FBA
    Commercial name             : Dolby TrueHD
    Codec ID                    : A_TRUEHD
    Duration                    : 2 h 7 min
    Bit rate mode               : Variable
    Bit rate                    : 2 812 kb/s
    Maximum bit rate            : 4 116 kb/s
    Channel(s)                  : 6 channels
    Channel layout              : L R C LFE Ls Rs
    Sampling rate               : 96.0 kHz
    Frame rate                  : 1 200.000 FPS (80 SPF)
    Compression mode            : Lossless
    Stream size                 : 2.50 GiB (21%)
    Language                    : Hindi
    Default                     : Yes
    Forced                      : No
    
    Audio #2
    ID                          : 3
    Format                      : AC-3
    Format/Info                 : Audio Coding 3
    Commercial name             : Dolby Digital
    Codec ID                    : A_AC3
    Duration                    : 2 h 7 min
    Bit rate mode               : Constant
    Bit rate                    : 640 kb/s
    Channel(s)                  : 6 channels
    Channel layout              : L R C LFE Ls Rs
    Sampling rate               : 48.0 kHz
    Frame rate                  : 31.250 FPS (1536 SPF)
    Bit depth                   : 16 bits
    Compression mode            : Lossy
    Stream size                 : 584 MiB (5%)
    Language                    : Hindi
    Service kind                : Complete Main
    Default                     : No
    Forced                      : No
    
    Text #1
    ID                          : 4
    Format                      : PGS
    Muxing mode                 : zlib
    Codec ID                    : S_HDMV/PGS
    Codec ID/Info               : Picture based subtitle format used on BDs/HD-DVDs
    Duration                    : 2 h 4 min
    Bit rate                    : 30.1 kb/s
    Count of elements           : 3244
    Stream size                 : 26.8 MiB (0%)
    Language                    : Chinese
    Default                     : Yes
    Forced                      : No
    
    Text #2
    ID                          : 5
    Format                      : PGS
    Muxing mode                 : zlib
    Codec ID                    : S_HDMV/PGS
    Codec ID/Info               : Picture based subtitle format used on BDs/HD-DVDs
    Duration                    : 2 h 4 min
    Bit rate                    : 29.5 kb/s
    Count of elements           : 3244
    Stream size                 : 26.2 MiB (0%)
    Language                    : Chinese
    Default                     : No
    Forced                      : No
    
    Text #3
    ID                          : 6
    Format                      : PGS
    Muxing mode                 : zlib
    Codec ID                    : S_HDMV/PGS
    Codec ID/Info               : Picture based subtitle format used on BDs/HD-DVDs
    Duration                    : 2 h 4 min
    Bit rate                    : 38.9 kb/s
    Count of elements           : 3184
    Stream size                 : 34.6 MiB (0%)
    Language                    : English
    Default                     : No
    Forced                      : No
    
    Menu
    00:00:00.000                : :Chapter 01
    00:10:00.541                : :Chapter 02
    00:19:25.625                : :Chapter 03
    00:33:36.041                : :Chapter 04
    00:43:17.416                : :Chapter 05
    00:52:49.166                : :Chapter 06
    01:03:55.625                : :Chapter 07
    01:12:49.250                : :Chapter 08
    01:23:34.625                : :Chapter 09
    01:36:25.583                : :Chapter 10
    01:45:59.458                : :Chapter 11
    01:54:46.208                : :Chapter 12
    
    



    Mard Ko Dard Nahin Hota (2018) 1080p Blu-ray x264 TrueHD 5.1-DDR Exclusive
    Mard Ko Dard Nahin Hota (2018) 1080p Blu-ray x264 TrueHD 5.1-DDR Exclusive
    Mard Ko Dard Nahin Hota (2018) 1080p Blu-ray x264 TrueHD 5.1-DDR Exclusive
    Mard Ko Dard Nahin Hota (2018) 1080p Blu-ray x264 TrueHD 5.1-DDR Exclusive
    Mard Ko Dard Nahin Hota (2018) 1080p Blu-ray x264 TrueHD 5.1-DDR Exclusive
    Mard Ko Dard Nahin Hota (2018) 1080p Blu-ray x264 TrueHD 5.1-DDR Exclusive
    Mard Ko Dard Nahin Hota (2018) 1080p Blu-ray x264 TrueHD 5.1-DDR Exclusive
    Mard Ko Dard Nahin Hota (2018) 1080p Blu-ray x264 TrueHD 5.1-DDR Exclusive
    Mard Ko Dard Nahin Hota (2018) 1080p Blu-ray x264 TrueHD 5.1-DDR Exclusive
    Mard Ko Dard Nahin Hota (2018) 1080p Blu-ray x264 TrueHD 5.1-DDR Exclusive
    Mard Ko Dard Nahin Hota (2018) 1080p Blu-ray x264 TrueHD 5.1-DDR Exclusive
    Mard Ko Dard Nahin Hota (2018) 1080p Blu-ray x264 TrueHD 5.1-DDR Exclusive
    Mard Ko Dard Nahin Hota (2018) 1080p Blu-ray x264 TrueHD 5.1-DDR Exclusive
    Mard Ko Dard Nahin Hota (2018) 1080p Blu-ray x264 TrueHD 5.1-DDR Exclusive

    SINGLE DIRECT FAST LINKS

    https://www.heroupload.com/c39e24165cd89587/Mard.Ko.Dard.Nahin.Hota.2018.1080p.Blu-ray.x264.TrueHD.5.1-DDR.mkv


    1GB LINKS


    
    https://www.heroupload.com/6524332ed04feb96/Mard.Ko.Dard.Nahin.Hota.2018.1080p.Blu-ray.x264.TrueHD.5.1-DDR.part01.rar
    https://www.heroupload.com/36b82b9436874361/Mard.Ko.Dard.Nahin.Hota.2018.1080p.Blu-ray.x264.TrueHD.5.1-DDR.part02.rar
    https://www.heroupload.com/095441e146cebba8/Mard.Ko.Dard.Nahin.Hota.2018.1080p.Blu-ray.x264.TrueHD.5.1-DDR.part03.rar
    https://www.heroupload.com/911f86398e4a6caa/Mard.Ko.Dard.Nahin.Hota.2018.1080p.Blu-ray.x264.TrueHD.5.1-DDR.part04.rar
    https://www.heroupload.com/f8488b8871f0c6e8/Mard.Ko.Dard.Nahin.Hota.2018.1080p.Blu-ray.x264.TrueHD.5.1-DDR.part05.rar
    https://www.heroupload.com/35923819b29a6eb8/Mard.Ko.Dard.Nahin.Hota.2018.1080p.Blu-ray.x264.TrueHD.5.1-DDR.part06.rar
    https://www.heroupload.com/697a214f9f9e9676/Mard.Ko.Dard.Nahin.Hota.2018.1080p.Blu-ray.x264.TrueHD.5.1-DDR.part07.rar
    https://www.heroupload.com/753e7ea3a2cd5f54/Mard.Ko.Dard.Nahin.Hota.2018.1080p.Blu-ray.x264.TrueHD.5.1-DDR.part08.rar
    https://www.heroupload.com/b95cbee879dba00d/Mard.Ko.Dard.Nahin.Hota.2018.1080p.Blu-ray.x264.TrueHD.5.1-DDR.part09.rar
    https://www.heroupload.com/17f6e196a5a9cc7a/Mard.Ko.Dard.Nahin.Hota.2018.1080p.Blu-ray.x264.TrueHD.5.1-DDR.part10.rar
    https://www.heroupload.com/cfb77e990a92d41d/Mard.Ko.Dard.Nahin.Hota.2018.1080p.Blu-ray.x264.TrueHD.5.1-DDR.part11.rar
    https://www.heroupload.com/c6cf7f4c9900b5f6/Mard.Ko.Dard.Nahin.Hota.2018.1080p.Blu-ray.x264.TrueHD.5.1-DDR.part12.rar



    Buy Premium From My Links & Support Me

    Comments

    Add Comment!


    Add comment

    Name:*
    E-Mail:
    Comment:
    • winkwinkedsmileam
      belayfeelfellowlaughing
      lollovenorecourse
      requestsadtonguewassat
      cryingwhatbullyangry
    Security Code: *
    reload, if the code cannot be seen