a b c d e f g h i j k l m n o p q r s t u v w x y z 0-9

Kesari (2019) UNTOUCHED - 1080p - WEB-DL - AVC - DD5.1 - ESub - BWT Exclusive

  • Views: 177
  • Author: stev
  • Date: 17-05-2019, 03:10
  • Category: Bollywood BluRay - Full HD
  • Rating:
    Description of the movie:
    Kesari (2019) UNTOUCHED - 1080p - WEB-DL - AVC - DD5.1 - ESub - BWT Exclusive





    Format                      : Matroska
    Format version              : Version 4
    File size                   : 9.72 GiB
    Duration                    : 2 h 33 min
    Overall bit rate            : 9 074 kb/s
    Encoded date                : UTC 2019-05-16 22:45:58
    Writing application         : mkvmerge v33.1.0 ('Primrose') 32-bit
    Writing library             : libebml v1.3.7 + libmatroska v1.5.0
    
    Video
    ID                          : 1
    Format                      : AVC
    Format/Info                 : Advanced Video Codec
    Format profile              : [email protected]
    Format settings             : CABAC / 4 Ref Frames
    Format settings, CABAC      : Yes
    Format settings, Reference  : 4 frames
    Codec ID                    : V_MPEG4/ISO/AVC
    Duration                    : 2 h 33 min
    Bit rate mode               : Constant
    Bit rate                    : 8 432 kb/s
    Nominal bit rate            : 10 000 kb/s
    Width                       : 1 920 pixels
    Height                      : 1 080 pixels
    Display aspect ratio        : 16:9
    Frame rate mode             : Constant
    Frame rate                  : 24.000 FPS
    Color space                 : YUV
    Chroma subsampling          : 4:2:0
    Bit depth                   : 8 bits
    Scan type                   : Progressive
    Bits/(Pixel*Frame)          : 0.169
    Stream size                 : 9.03 GiB (93%)
    Language                    : Hindi
    Default                     : Yes
    Forced                      : No
    Color range                 : Limited
    Color primaries             : BT.709
    Transfer characteristics    : BT.709
    Matrix coefficients         : BT.709
    
    Audio
    ID                          : 2
    Format                      : E-AC-3
    Format/Info                 : Enhanced AC-3
    Commercial name             : Dolby Digital Plus
    Codec ID                    : A_EAC3
    Duration                    : 2 h 33 min
    Bit rate mode               : Constant
    Bit rate                    : 640 kb/s
    Channel(s)                  : 6 channels
    Channel layout              : L R C LFE Ls Rs
    Sampling rate               : 48.0 kHz
    Frame rate                  : 31.250 FPS (1536 SPF)
    Compression mode            : Lossy
    Stream size                 : 702 MiB (7%)
    Language                    : Hindi
    Service kind                : Complete Main
    Default                     : Yes
    Forced                      : No
    
    Text
    ID                          : 3
    Format                      : UTF-8
    Codec ID                    : S_TEXT/UTF8
    Codec ID/Info               : UTF-8 Plain Text
    Duration                    : 2 h 26 min
    Bit rate                    : 33 b/s
    Count of elements           : 1229
    Stream size                 : 35.9 KiB (0%)
    Language                    : English
    Default                     : No
    Forced                      : No
    
    


    Kesari (2019) UNTOUCHED - 1080p - WEB-DL - AVC - DD5.1 - ESub - BWT ExclusiveKesari (2019) UNTOUCHED - 1080p - WEB-DL - AVC - DD5.1 - ESub - BWT ExclusiveKesari (2019) UNTOUCHED - 1080p - WEB-DL - AVC - DD5.1 - ESub - BWT ExclusiveKesari (2019) UNTOUCHED - 1080p - WEB-DL - AVC - DD5.1 - ESub - BWT ExclusiveKesari (2019) UNTOUCHED - 1080p - WEB-DL - AVC - DD5.1 - ESub - BWT Exclusive

    SINGLE DIRECT FAST LINKS

    https://www.heroupload.com/397e59c62e2e18f9/Kesari.2019.Hindi.WEB-DL.1080p.AVC.UNTOUCHED.DD5.1.ESub-BWT.mkv


    1GB LINKS


    
    https://www.heroupload.com/15abaa32715c8b70/Kesari.2019.Hindi.WEB-DL.1080p.AVC.UNTOUCHED.DD5.1.ESub-BWT.part01.rar
    https://www.heroupload.com/1a0b826cc850f842/Kesari.2019.Hindi.WEB-DL.1080p.AVC.UNTOUCHED.DD5.1.ESub-BWT.part02.rar
    https://www.heroupload.com/f1dec83e2102e7c8/Kesari.2019.Hindi.WEB-DL.1080p.AVC.UNTOUCHED.DD5.1.ESub-BWT.part03.rar
    https://www.heroupload.com/ae238e237b244305/Kesari.2019.Hindi.WEB-DL.1080p.AVC.UNTOUCHED.DD5.1.ESub-BWT.part04.rar
    https://www.heroupload.com/e03742bedc635da3/Kesari.2019.Hindi.WEB-DL.1080p.AVC.UNTOUCHED.DD5.1.ESub-BWT.part05.rar
    https://www.heroupload.com/454b2d033e36feca/Kesari.2019.Hindi.WEB-DL.1080p.AVC.UNTOUCHED.DD5.1.ESub-BWT.part06.rar
    https://www.heroupload.com/98927b9d3095be77/Kesari.2019.Hindi.WEB-DL.1080p.AVC.UNTOUCHED.DD5.1.ESub-BWT.part07.rar
    https://www.heroupload.com/dd82f6a3b1daa970/Kesari.2019.Hindi.WEB-DL.1080p.AVC.UNTOUCHED.DD5.1.ESub-BWT.part08.rar
    https://www.heroupload.com/389f9b7d60043f04/Kesari.2019.Hindi.WEB-DL.1080p.AVC.UNTOUCHED.DD5.1.ESub-BWT.part09.rar
    https://www.heroupload.com/1b69c41401e8cd3f/Kesari.2019.Hindi.WEB-DL.1080p.AVC.UNTOUCHED.DD5.1.ESub-BWT.part10.rar





    Buy Premium From My Links & Support Me

    Comments

    Add Comment!


    Add comment

    Name:*
    E-Mail:
    Comment:
    • winkwinkedsmileam
      belayfeelfellowlaughing
      lollovenorecourse
      requestsadtonguewassat
      cryingwhatbullyangry
    Security Code: *
    reload, if the code cannot be seen