a b c d e f g h i j k l m n o p q r s t u v w x y z 0-9

Fakir of Venice (2019) Hindi 1080p Untouched WEB-DL AVC AAC-BWT Exclusive

  • Views: 15
  • Author: stev
  • Date: 8-04-2019, 21:43
  • Category: Bollywood BluRay - Full HD
  • Rating:
    Description of the movie:
    Fakir of Venice (2019) Hindi 1080p Untouched WEB-DL AVC AAC-BWT Exclusive





    Video
    ID                             : 1
    Format                         : AVC
    Format/Info                    : Advanced Video Codec
    Format profile                 : High@L4
    Format settings, CABAC         : Yes
    Format settings, RefFrames     : 4 frames
    Codec ID                       : avc1
    Codec ID/Info                  : Advanced Video Coding
    Duration                       : 1 h 32 min
    Bit rate                       : 1 994 kb/s
    Nominal bit rate               : 2 200 kb/s
    Width                          : 1 920 pixels
    Height                         : 1 080 pixels
    Display aspect ratio           : 16:9
    Frame rate mode                : Constant
    Frame rate                     : 25.000 FPS
    Color space                    : YUV
    Chroma subsampling             : 4:2:0
    Bit depth                      : 8 bits
    Scan type                      : Progressive
    Bits/(Pixel*Frame)             : 0.038
    Stream size                    : 1.29 GiB (95%)
    
    
    Audio
    ID                             : 2
    Format                         : AAC
    Format/Info                    : Advanced Audio Codec
    Format profile                 : LC
    Codec ID                       : 40
    Duration                       : 1 h 32 min
    Bit rate mode                  : Constant
    Bit rate                       : 96.0 kb/s
    Channel(s)                     : 2 channels
    Channel positions              : Front: L R
    Sampling rate                  : 48.0 kHz
    Frame rate                     : 46.875 FPS (1024 SPF)
    Compression mode               : Lossy
    Stream size                    : 63.9 MiB (5%)
    Default                        : Yes
    Alternate group                : 1


    Fakir of Venice (2019) Hindi 1080p Untouched WEB-DL AVC AAC-BWT ExclusiveFakir of Venice (2019) Hindi 1080p Untouched WEB-DL AVC AAC-BWT ExclusiveFakir of Venice (2019) Hindi 1080p Untouched WEB-DL AVC AAC-BWT ExclusiveFakir of Venice (2019) Hindi 1080p Untouched WEB-DL AVC AAC-BWT Exclusive
    SINGLE DIRECT FAST LINKS

    https://www.heroupload.com/2c11755adc66369e/The.Fakir.of.Venice.2019.Hindi.1080p.Untouched.WEB-DL.x264.AVC.AAC-BWT.mkv





    Buy Premium From My Links & Support Me

    Comments

    Add Comment!


    Add comment

    Name:*
    E-Mail:
    Comment:
    • winkwinkedsmileam
      belayfeelfellowlaughing
      lollovenorecourse
      requestsadtonguewassat
      cryingwhatbullyangry
    Security Code: *
    reload, if the code cannot be seen