a b c d e f g h i j k l m n o p q r s t u v w x y z 0-9

Thanga Magan (2015) UNCUT 720p HDRip x264 [Dual Audio][Hindi+Tamil] DM

  • Views: 15
  • Author: stev
  • Date: 7-04-2019, 01:27
  • Category: South Indian Hindi Dub Movies
  • Rating:
    Description of the movie:
    Thanga Magan (2015) UNCUT 720p HDRip x264 [Dual Audio][Hindi+Tamil] DM






    General
    Format : Matroska
    Format version : Version 4
    File size : 1.36 GiB
    Duration : 1 h 54 min
    Overall bit rate : 1 690 kb/s
    Movie name : DesireMOVies.space
    Encoded date : UTC 2019-04-06 08:54:43 / UTC
    Writing application : mkvmerge v13.0.0 ('The Juggler') 64bit
    Writing library : libebml v1.3.4 + libmatroska v1.4.5 / Lavf55.12.0
    
    Video
    ID : 1
    Format : AVC
    Format/Info : Advanced Video Codec
    Format profile : High@L4
    Format settings : CABAC / 8 Ref Frames
    Format settings, CABAC : Yes
    Format settings, ReFrames : 8 frames
    Codec ID : V_MPEG4/ISO/AVC
    Duration : 1 h 54 min
    Bit rate : 1 400 kb/s
    Width : 1 200 pixels
    Height : 512 pixels
    Default : Yes
    Forced : No
    Color range : Limited
    Color primaries : BT.709
    Transfer characteristics : BT.709
    Matrix coefficients : BT.709
    
    Audio #1
    ID : 2
    Format : AC-3
    Format/Info : Audio Coding 3
    Commercial name : Dolby Digital
    Codec ID : A_AC3
    Duration : 1 h 54 min
    Bit rate mode : Constant
    Bit rate : 192 kb/s
    Channel(s) : 2 channels
    Channel layout : L R
    Sampling rate : 48.0 kHz
    Frame rate : 31.250 FPS (1536 SPF)
    Bit depth : 16 bits
    Compression mode : Lossy
    Delay relative to video : -105 ms
    Stream size : 158 MiB (11%)
    Title : DesireMOVies.space
    Language : Hindi
    Service kind : Complete Main
    Default : Yes
    Forced : Yes
    
    Audio #2
    ID : 3
    Format : AAC LC SBR
    Format/Info : Advanced Audio Codec Low Complexity with Spectral Band Replication
    Commercial name : HE-AAC
    Format settings : NBC
    Codec ID : A_AAC-5
    Duration : 1 h 54 min
    Bit rate : 96.0 kb/s
    Channel(s) : 2 channels
    Channel layout : L R
    Sampling rate : 48.0 kHz
    Frame rate : 23.438 FPS (2048 SPF)
    Compression mode : Lossy
    Delay relative to video : -105 ms
    Stream size : 78.9 MiB (6%)
    Title : DesireMOVies.space
    Language : Tamil
    Default : No
    Forced : No 




    Thanga Magan (2015) UNCUT 720p HDRip x264 [Dual Audio][Hindi+Tamil] DM
    Thanga Magan (2015) UNCUT 720p HDRip x264 [Dual Audio][Hindi+Tamil] DM
    Thanga Magan (2015) UNCUT 720p HDRip x264 [Dual Audio][Hindi+Tamil] DM
    Thanga Magan (2015) UNCUT 720p HDRip x264 [Dual Audio][Hindi+Tamil] DM
    Thanga Magan (2015) UNCUT 720p HDRip x264 [Dual Audio][Hindi+Tamil] DM
    Thanga Magan (2015) UNCUT 720p HDRip x264 [Dual Audio][Hindi+Tamil] DM
    Thanga Magan (2015) UNCUT 720p HDRip x264 [Dual Audio][Hindi+Tamil] DM
    Thanga Magan (2015) UNCUT 720p HDRip x264 [Dual Audio][Hindi+Tamil] DM
    Thanga Magan (2015) UNCUT 720p HDRip x264 [Dual Audio][Hindi+Tamil] DM
    Thanga Magan (2015) UNCUT 720p HDRip x264 [Dual Audio][Hindi+Tamil] DM
    Thanga Magan (2015) UNCUT 720p HDRip x264 [Dual Audio][Hindi+Tamil] DM


    SINGLE DIRECT FAST LINKS


    
    https://www.heroupload.com/359a009a19d55626/Thanga.Magan.2015.UNCUT.720p.HDRip.x264.Dual.Audio-DM.mkv


    Buy Premium From My Links & Support Me

    Comments

    Add Comment!


    Add comment

    Name:*
    E-Mail:
    Comment:
    • winkwinkedsmileam
      belayfeelfellowlaughing
      lollovenorecourse
      requestsadtonguewassat
      cryingwhatbullyangry
    Security Code: *
    reload, if the code cannot be seen