a b c d e f g h i j k l m n o p q r s t u v w x y z 0-9

Lupt (2018) 1080p - WEB-HD - AVC - DD5.1 - ESub-BWT

  • Views: 11
  • Author: stev
  • Date: 5-04-2019, 15:42
  • Category: Bollywood BluRay - Full HD
  • Rating:
    Description of the movie:
    Lupt (2018) 1080p - WEB-HD - AVC - DD5.1 - ESub-BWT




    Format                                   : Matroska
    Format version                           : Version 4
    File size                                : 2.53 GiB
    Duration                                 : 1 h 49 min
    Overall bit rate                         : 3 302 kb/s
    Encoded date                             : UTC 2019-04-05 10:36:47
    Writing application                      : mkvmerge v29.0.0 ('Like It Or Not') 32-bit
    Writing library                          : libebml v1.3.6 + libmatroska v1.4.9
    
    Video
    ID                                       : 1
    Format                                   : AVC
    Format/Info                              : Advanced Video Codec
    Format profile                           : High@L4
    Format settings                          : CABAC / 4 Ref Frames
    Format settings, CABAC                   : Yes
    Format settings, RefFrames               : 4 frames
    Codec ID                                 : V_MPEG4/ISO/AVC
    Duration                                 : 1 h 49 min
    Bit rate                                 : 3 147 kb/s
    Width                                    : 1 920 pixels
    Height                                   : 1 080 pixels
    Display aspect ratio                     : 16:9
    Frame rate mode                          : Constant
    Frame rate                               : 24.000 FPS
    Color space                              : YUV
    Chroma subsampling                       : 4:2:0
    Bit depth                                : 8 bits
    Scan type                                : Progressive
    Bits/(Pixel*Frame)                       : 0.063
    Stream size                              : 2.40 GiB (95%)
    Writing library                          : x264 core 157 r2935 545de2f
    Encoding settings                        : cabac=1 / ref=2 / deblock=1:0:0 / analyse=0x3:0x113 / me=hex / subme=6 / psy=1 / psy_rd=1.00:0.00 / mixed_ref=1 / me_range=16 / chroma_me=1 / trellis=1 / 8x8dct=1 / cqm=0 / deadzone=21,11 / fast_pskip=1 / chroma_qp_offset=-2 / threads=34 / lookahead_threads=5 / sliced_threads=0 / nr=0 / decimate=1 / interlaced=0 / bluray_compat=0 / constrained_intra=0 / bframes=3 / b_pyramid=2 / b_adapt=1 / b_bias=0 / direct=1 / weightb=1 / open_gop=0 / weightp=1 / keyint=240 / keyint_min=24 / scenecut=40 / intra_refresh=0 / rc_lookahead=30 / rc=abr / mbtree=1 / bitrate=3147 / ratetol=1.0 / qcomp=0.60 / qpmin=0 / qpmax=69 / qpstep=4 / ip_ratio=1.40 / aq=1:1.00
    Language                                 : English
    Default                                  : Yes
    Forced                                   : No
    
    Audio
    ID                                       : 2
    Format                                   : AC-3
    Format/Info                              : Audio Coding 3
    Commercial name                          : Dolby Digital
    Codec ID                                 : A_AC3
    Duration                                 : 1 h 49 min
    Bit rate mode                            : Constant
    Bit rate                                 : 160 kb/s
    Channel(s)                               : 6 channels
    Channel layout                           : L R C LFE Ls Rs
    Sampling rate                            : 44.1 kHz
    Frame rate                               : 28.711 FPS (1536 SPF)
    Bit depth                                : 16 bits
    Compression mode                         : Lossy
    Stream size                              : 125 MiB (5%)
    Language                                 : English
    Service kind                             : Complete Main
    Default                                  : Yes
    Forced                                   : No
    
    Text
    ID                                       : 3
    Format                                   : UTF-8
    Codec ID                                 : S_TEXT/UTF8
    Codec ID/Info                            : UTF-8 Plain Text
    Duration                                 : 1 h 47 min
    Bit rate                                 : 27 b/s
    Count of elements                        : 671
    Stream size                              : 21.4 KiB (0%)
    Language                                 : English
    Default                                  : No
    Forced                                   : No
    
    



    Lupt (2018) 1080p - WEB-HD - AVC - DD5.1 - ESub-BWTLupt (2018) 1080p - WEB-HD - AVC - DD5.1 - ESub-BWTLupt (2018) 1080p - WEB-HD - AVC - DD5.1 - ESub-BWTLupt (2018) 1080p - WEB-HD - AVC - DD5.1 - ESub-BWTLupt (2018) 1080p - WEB-HD - AVC - DD5.1 - ESub-BWT

    SINGLE DIRECT FAST LINKS

    https://www.heroupload.com/4e1a276b60f1ea3f/Lupt.2018.Hindi.WEB-HD.1080p.x264.DD5.1.ESub-BWT.mkv


    1GB LINKS

    
    https://www.heroupload.com/441d1b9959d1ff1f/Lupt.2018.Hindi.WEB-HD.1080p.x264.DD5.1.ESub-BWT.part1.rar
    https://www.heroupload.com/96ff4f03ef8ab786/Lupt.2018.Hindi.WEB-HD.1080p.x264.DD5.1.ESub-BWT.part2.rar
    https://www.heroupload.com/368d3fdcfac778c9/Lupt.2018.Hindi.WEB-HD.1080p.x264.DD5.1.ESub-BWT.part3.rar
    https://www.heroupload.com/c8a078f186280300/Lupt.2018.Hindi.WEB-HD.1080p.x264.DD5.1.ESub-BWT.part4.rar


    Buy Premium From My Links & Support Me

    Comments

    Add Comment!


    Add comment

    Name:*
    E-Mail:
    Comment:
    • winkwinkedsmileam
      belayfeelfellowlaughing
      lollovenorecourse
      requestsadtonguewassat
      cryingwhatbullyangry
    Security Code: *
    reload, if the code cannot be seen