a b c d e f g h i j k l m n o p q r s t u v w x y z 0-9

Thackeray (2019) 1080p - HDTV - UNTOUCHED - AVC - AAC-BWT Exclusive

  • Views: 22
  • Author: stev
  • Date: 31-03-2019, 22:29
  • Category: Bollywood BluRay - Full HD
  • Rating:
    Description of the movie:
    Thackeray (2019) 1080p - HDTV - UNTOUCHED - AVC - AAC-BWT Exclusive





    ormat                                   : MPEG-4
    Format profile                           : Base Media
    Codec ID                                 : isom (isom)
    File size                                : 5.69 GiB
    Duration                                 : 2 h 11 min
    Overall bit rate mode                    : Variable
    Overall bit rate                         : 6 201 kb/s
    Encoded date                             : UTC 2019-03-31 10:21:12
    Tagged date                              : UTC 2019-03-31 10:21:12
    
    Video
    ID                                       : 1
    Format                                   : AVC
    Format/Info                              : Advanced Video Codec
    Format profile                           : Baseline@L4
    Format settings                          : 1 Ref Frames
    Format settings, CABAC                   : No
    Format settings, RefFrames               : 1 frame
    Codec ID                                 : avc1
    Codec ID/Info                            : Advanced Video Coding
    Duration                                 : 2 h 11 min
    Bit rate                                 : 6 070 kb/s
    Maximum bit rate                         : 20.5 Mb/s
    Width                                    : 1 920 pixels
    Height                                   : 1 080 pixels
    Display aspect ratio                     : 16:9
    Frame rate mode                          : Variable
    Frame rate                               : 23.976 (23976/1000) FPS
    Minimum frame rate                       : 13.333 FPS
    Maximum frame rate                       : 24.000 FPS
    Color space                              : YUV
    Chroma subsampling                       : 4:2:0
    Bit depth                                : 8 bits
    Scan type                                : Progressive
    Bits/(Pixel*Frame)                       : 0.122
    Stream size                              : 5.57 GiB (98%)
    Language                                 : English
    Tagged date                              : UTC 2019-03-31 10:21:29
    Codec configuration box                  : avcC
    
    Audio
    ID                                       : 2
    Format                                   : AAC LC
    Format/Info                              : Advanced Audio Codec Low Complexity
    Codec ID                                 : mp4a-40-2
    Duration                                 : 2 h 11 min
    Bit rate mode                            : Variable
    Bit rate                                 : 129 kb/s
    Maximum bit rate                         : 142 kb/s
    Channel(s)                               : 2 channels
    Channel layout                           : L R
    Sampling rate                            : 48.0 kHz
    Frame rate                               : 46.875 FPS (1024 SPF)
    Compression mode                         : Lossy
    Stream size                              : 121 MiB (2%)
    Language                                 : English
    Tagged date                              : UTC 2019-03-31 10:21:29
    
    

    Thackeray (2019) 1080p - HDTV - UNTOUCHED - AVC - AAC-BWT ExclusiveThackeray (2019) 1080p - HDTV - UNTOUCHED - AVC - AAC-BWT ExclusiveThackeray (2019) 1080p - HDTV - UNTOUCHED - AVC - AAC-BWT ExclusiveThackeray (2019) 1080p - HDTV - UNTOUCHED - AVC - AAC-BWT ExclusiveThackeray (2019) 1080p - HDTV - UNTOUCHED - AVC - AAC-BWT Exclusive

    SINGLE DIRECT FAST LINKS

    https://www.heroupload.com/40aeb01ced2a913d/Thackeray.2019.Hindi.HDTV.1080p.UNTOUCHED.AVC.AAC-BWT.mp4


    1GB LINKS
    
    https://www.heroupload.com/6f54d643d2977ffd/Thackeray.2019.Hindi.HDTV.1080p.UNTOUCHED.AVC.AAC-BWT.part1.rar
    https://www.heroupload.com/3fd32611b32f5243/Thackeray.2019.Hindi.HDTV.1080p.UNTOUCHED.AVC.AAC-BWT.part2.rar
    https://www.heroupload.com/9f5aa4cefa38a069/Thackeray.2019.Hindi.HDTV.1080p.UNTOUCHED.AVC.AAC-BWT.part3.rar
    https://www.heroupload.com/c098826935293988/Thackeray.2019.Hindi.HDTV.1080p.UNTOUCHED.AVC.AAC-BWT.part4.rar
    https://www.heroupload.com/415495f7b462e640/Thackeray.2019.Hindi.HDTV.1080p.UNTOUCHED.AVC.AAC-BWT.part5.rar
    https://www.heroupload.com/4924e83c0a7ca760/Thackeray.2019.Hindi.HDTV.1080p.UNTOUCHED.AVC.AAC-BWT.part6.rar


    Buy Premium From My Links & Support Me

    Comments

    Add Comment!


    Add comment

    Name:*
    E-Mail:
    Comment:
    • winkwinkedsmileam
      belayfeelfellowlaughing
      lollovenorecourse
      requestsadtonguewassat
      cryingwhatbullyangry
    Security Code: *
    reload, if the code cannot be seen