a b c d e f g h i j k l m n o p q r s t u v w x y z 0-9

Thackeray (2019) 720p - HDTV-Rip - x264 - DD5.1-BWT Exclusive

  • Views: 13
  • Author: stev
  • Date: 31-03-2019, 22:26
  • Category: Bollywood BluRay - Full HD
  • Rating:
    Description of the movie:
    Thackeray (2019) 720p - HDTV-Rip - x264 - DD5.1-BWT Exclusive




    Format                                   : Matroska
    Format version                           : Version 4
    File size                                : 1.31 GiB
    Duration                                 : 2 h 11 min
    Overall bit rate                         : 1 426 kb/s
    Encoded date                             : UTC 2019-03-31 17:09:35
    Writing application                      : mkvmerge v29.0.0 ('Like It Or Not') 32-bit
    Writing library                          : libebml v1.3.6 + libmatroska v1.4.9
    
    Video
    ID                                       : 1
    Format                                   : AVC
    Format/Info                              : Advanced Video Codec
    Format profile                           : High@L3.1
    Format settings                          : CABAC / 4 Ref Frames
    Format settings, CABAC                   : Yes
    Format settings, RefFrames               : 4 frames
    Codec ID                                 : V_MPEG4/ISO/AVC
    Duration                                 : 2 h 11 min
    Bit rate                                 : 1 288 kb/s
    Width                                    : 1 280 pixels
    Height                                   : 536 pixels
    Display aspect ratio                     : 2.40:1
    Frame rate mode                          : Constant
    Frame rate                               : 23.976 (24000/1001) FPS
    Color space                              : YUV
    Chroma subsampling                       : 4:2:0
    Bit depth                                : 8 bits
    Scan type                                : Progressive
    Bits/(Pixel*Frame)                       : 0.078
    Stream size                              : 1.19 GiB (91%)
    Writing library                          : x264 core 157 r2935 545de2f
    Encoding settings                        : cabac=1 / ref=1 / deblock=1:0:0 / analyse=0x3:0x113 / me=hex / subme=2 / psy=1 / psy_rd=1.00:0.00 / mixed_ref=0 / me_range=16 / chroma_me=1 / trellis=0 / 8x8dct=1 / cqm=0 / deadzone=21,11 / fast_pskip=1 / chroma_qp_offset=0 / threads=17 / lookahead_threads=4 / sliced_threads=0 / nr=0 / decimate=1 / interlaced=0 / bluray_compat=0 / constrained_intra=0 / bframes=3 / b_pyramid=2 / b_adapt=1 / b_bias=0 / direct=1 / weightb=1 / open_gop=0 / weightp=1 / keyint=240 / keyint_min=23 / scenecut=40 / intra_refresh=0 / rc_lookahead=10 / rc=abr / mbtree=1 / bitrate=1288 / ratetol=1.0 / qcomp=0.60 / qpmin=0 / qpmax=69 / qpstep=4 / ip_ratio=1.40 / aq=1:1.00
    Language                                 : Hindi
    Default                                  : Yes
    Forced                                   : No
    
    Audio
    ID                                       : 2
    Format                                   : AC-3
    Format/Info                              : Audio Coding 3
    Commercial name                          : Dolby Digital
    Codec ID                                 : A_AC3
    Duration                                 : 2 h 11 min
    Bit rate mode                            : Constant
    Bit rate                                 : 128 kb/s
    Channel(s)                               : 6 channels
    Channel layout                           : L R C LFE Ls Rs
    Sampling rate                            : 44.1 kHz
    Frame rate                               : 28.711 FPS (1536 SPF)
    Bit depth                                : 16 bits
    Compression mode                         : Lossy
    Stream size                              : 120 MiB (9%)
    Language                                 : Hindi
    Service kind                             : Complete Main
    Default                                  : Yes
    Forced                                   : No
    
    


    Thackeray (2019) 720p - HDTV-Rip - x264 - DD5.1-BWT ExclusiveThackeray (2019) 720p - HDTV-Rip - x264 - DD5.1-BWT ExclusiveThackeray (2019) 720p - HDTV-Rip - x264 - DD5.1-BWT ExclusiveThackeray (2019) 720p - HDTV-Rip - x264 - DD5.1-BWT ExclusiveThackeray (2019) 720p - HDTV-Rip - x264 - DD5.1-BWT Exclusive
    SINGLE DIRECT FAST LINKS

    
    https://www.heroupload.com/9aff1cc286cdfdea/Thackeray.2019.Hindi.HDTV-Rip.720p.x264.5.1-BWT.mkv



    Buy Premium From My Links & Support Me

    Comments

    Add Comment!


    Add comment

    Name:*
    E-Mail:
    Comment:
    • winkwinkedsmileam
      belayfeelfellowlaughing
      lollovenorecourse
      requestsadtonguewassat
      cryingwhatbullyangry
    Security Code: *
    reload, if the code cannot be seen