a b c d e f g h i j k l m n o p q r s t u v w x y z 0-9

2.0 (2018) 1080p HDRip x264 [Multi Line Audios][Hindi+Telugu+Tamil]

  • Views: 1 688
  • Author: stev
  • Date: 29-03-2019, 03:22
  • Category: Bollywood Latest Movies CAM/pDVD/DVDscr
  • Rating:
    Description of the movie:
    2.0 (2018) 1080p HDRip x264 [Multi Line Audios][Hindi+Telugu+Tamil]





    Format                                   : Matroska
    Format version                           : Version 4
    File size                                : 2.52 GiB
    Duration                                 : 2 h 22 min
    Overall bit rate mode                    : Variable
    Overall bit rate                         : 2 538 kb/s
    Encoded date                             : UTC 2019-03-28 23:41:56
    Writing application                      : mkvmerge v29.0.0 ('Like It Or Not') 32-bit
    Writing library                          : libebml v1.3.6 + libmatroska v1.4.9
    
    Video
    ID                                       : 1
    Format                                   : AVC
    Format/Info                              : Advanced Video Codec
    Format profile                           : High@L4
    Format settings                          : CABAC / 4 Ref Frames
    Format settings, CABAC                   : Yes
    Format settings, RefFrames               : 4 frames
    Codec ID                                 : V_MPEG4/ISO/AVC
    Duration                                 : 2 h 22 min
    Bit rate                                 : 2 266 kb/s
    Width                                    : 1 920 pixels
    Height                                   : 1 080 pixels
    Display aspect ratio                     : 16:9
    Frame rate mode                          : Constant
    Frame rate                               : 25.000 FPS
    Color space                              : YUV
    Chroma subsampling                       : 4:2:0
    Bit depth                                : 8 bits
    Scan type                                : Progressive
    Bits/(Pixel*Frame)                       : 0.044
    Stream size                              : 2.22 GiB (88%)
    Writing library                          : x264 core 157 r2935 545de2f
    Encoding settings                        : cabac=1 / ref=1 / deblock=1:0:0 / analyse=0x3:0x113 / me=hex / subme=2 / psy=1 / psy_rd=1.00:0.00 / mixed_ref=0 / me_range=16 / chroma_me=1 / trellis=0 / 8x8dct=1 / cqm=0 / deadzone=21,11 / fast_pskip=1 / chroma_qp_offset=0 / threads=34 / lookahead_threads=8 / sliced_threads=0 / nr=0 / decimate=1 / interlaced=0 / bluray_compat=0 / constrained_intra=0 / bframes=3 / b_pyramid=2 / b_adapt=1 / b_bias=0 / direct=1 / weightb=1 / open_gop=0 / weightp=1 / keyint=250 / keyint_min=25 / scenecut=40 / intra_refresh=0 / rc_lookahead=10 / rc=abr / mbtree=1 / bitrate=2266 / ratetol=1.0 / qcomp=0.60 / qpmin=0 / qpmax=69 / qpstep=4 / ip_ratio=1.40 / aq=1:1.00
    Language                                 : Tamil
    Default                                  : Yes
    Forced                                   : No
    
    Audio #1
    ID                                       : 2
    Format                                   : MPEG Audio
    Format version                           : Version 1
    Format profile                           : Layer 3
    Format settings                          : Joint stereo / MS Stereo
    Codec ID                                 : A_MPEG/L3
    Codec ID/Hint                            : MP3
    Duration                                 : 2 h 22 min
    Bit rate mode                            : Variable
    Bit rate                                 : 96.0 kb/s
    Channel(s)                               : 2 channels
    Sampling rate                            : 48.0 kHz
    Frame rate                               : 41.667 FPS (1152 SPF)
    Compression mode                         : Lossy
    Stream size                              : 99.0 MiB (4%)
    Writing library                          : LAME3.99r
    Encoding settings                        : -m j -V 4 -q 3 -lowpass 15.1 --abr 96
    Language                                 : Telugu
    Default                                  : No
    Forced                                   : No
    
    Audio #2
    ID                                       : 3
    Format                                   : MPEG Audio
    Format version                           : Version 1
    Format profile                           : Layer 3
    Format settings                          : Joint stereo / MS Stereo
    Codec ID                                 : A_MPEG/L3
    Codec ID/Hint                            : MP3
    Duration                                 : 2 h 22 min
    Bit rate mode                            : Variable
    Bit rate                                 : 96.0 kb/s
    Channel(s)                               : 2 channels
    Sampling rate                            : 48.0 kHz
    Frame rate                               : 41.667 FPS (1152 SPF)
    Compression mode                         : Lossy
    Stream size                              : 97.7 MiB (4%)
    Writing library                          : LAME3.99r
    Encoding settings                        : -m j -V 4 -q 3 -lowpass 15.1 --abr 96
    Language                                 : Tamil
    Default                                  : No
    Forced                                   : No
    
    Audio #3
    ID                                       : 4
    Format                                   : MPEG Audio
    Format version                           : Version 1
    Format profile                           : Layer 3
    Format settings                          : Joint stereo / MS Stereo
    Codec ID                                 : A_MPEG/L3
    Codec ID/Hint                            : MP3
    Duration                                 : 2 h 22 min
    Bit rate mode                            : Variable
    Bit rate                                 : 96.0 kb/s
    Channel(s)                               : 2 channels
    Sampling rate                            : 48.0 kHz
    Frame rate                               : 41.667 FPS (1152 SPF)
    Compression mode                         : Lossy
    Stream size                              : 100 MiB (4%)
    Writing library                          : LAME3.99r
    Encoding settings                        : -m j -V 4 -q 3 -lowpass 15.1 --abr 96
    Language                                 : Hindi
    Default                                  : Yes
    Forced                                   : Yes
    
    


    2.0 (2018) 1080p HDRip x264 [Multi Line Audios][Hindi+Telugu+Tamil]2.0 (2018) 1080p HDRip x264 [Multi Line Audios][Hindi+Telugu+Tamil]2.0 (2018) 1080p HDRip x264 [Multi Line Audios][Hindi+Telugu+Tamil]2.0 (2018) 1080p HDRip x264 [Multi Line Audios][Hindi+Telugu+Tamil]


    SINGLE DIRECT FAST LINKS

    https://www.heroupload.com/63e9e60fd6d3854b/2.0.2018.HDRip.1080p.x264.Telugu.Line+Tamil.Org+Hindi.Line.mkv


    700MB LINKS

    
    https://www.heroupload.com/28897672d07a1deb/2.0.2018.HDRip.1080p.x264.Telugu.Line+Tamil.Org+Hindi.Line.part1.rar
    https://www.heroupload.com/027234bda07c12f5/2.0.2018.HDRip.1080p.x264.Telugu.Line+Tamil.Org+Hindi.Line.part2.rar
    https://www.heroupload.com/1202b0bc5058d30d/2.0.2018.HDRip.1080p.x264.Telugu.Line+Tamil.Org+Hindi.Line.part3.rar
    https://www.heroupload.com/c6299067719e457f/2.0.2018.HDRip.1080p.x264.Telugu.Line+Tamil.Org+Hindi.Line.part4.rar


    Buy Premium From My Links & Support Me

    Comments

    Add Comment!


    Add comment

    Name:*
    E-Mail:
    Comment:
    • winkwinkedsmileam
      belayfeelfellowlaughing
      lollovenorecourse
      requestsadtonguewassat
      cryingwhatbullyangry
    Security Code: *
    reload, if the code cannot be seen