a b c d e f g h i j k l m n o p q r s t u v w x y z 0-9

2.0 (2018) Tamil Original - 1080p - WEB-HD - AVC - DD5.1-MTR

  • Views: 510
  • Author: stev
  • Date: 29-03-2019, 03:09
  • Category: Tamil Movies
  • Rating:
    Description of the movie:
    2.0 (2018) Tamil Original - 1080p - WEB-HD - AVC - DD5.1-MTR






    Format                                   : Matroska
    Format version                           : Version 4
    File size                                : 4.22 GiB
    Duration                                 : 2 h 22 min
    Overall bit rate                         : 4 249 kb/s
    Encoded date                             : UTC 2019-03-28 23:46:06
    Writing application                      : mkvmerge v29.0.0 ('Like It Or Not') 32-bit
    Writing library                          : libebml v1.3.6 + libmatroska v1.4.9
    
    Video
    ID                                       : 1
    Format                                   : AVC
    Format/Info                              : Advanced Video Codec
    Format profile                           : High@L5
    Format settings                          : CABAC / 8 Ref Frames
    Format settings, CABAC                   : Yes
    Format settings, RefFrames               : 8 frames
    Codec ID                                 : V_MPEG4/ISO/AVC
    Duration                                 : 2 h 22 min
    Bit rate                                 : 4 131 kb/s
    Width                                    : 1 920 pixels
    Height                                   : 1 080 pixels
    Display aspect ratio                     : 16:9
    Frame rate mode                          : Constant
    Frame rate                               : 25.000 FPS
    Color space                              : YUV
    Chroma subsampling                       : 4:2:0
    Bit depth                                : 8 bits
    Scan type                                : Progressive
    Bits/(Pixel*Frame)                       : 0.080
    Stream size                              : 4.05 GiB (96%)
    Writing library                          : x264 core 157 r2935 545de2f
    Encoding settings                        : cabac=1 / ref=8 / deblock=1:0:0 / analyse=0x3:0x133 / me=umh / subme=9 / psy=1 / psy_rd=1.00:0.00 / mixed_ref=1 / me_range=16 / chroma_me=1 / trellis=2 / 8x8dct=1 / cqm=0 / deadzone=21,11 / fast_pskip=1 / chroma_qp_offset=-2 / threads=34 / lookahead_threads=2 / sliced_threads=0 / nr=0 / decimate=1 / interlaced=0 / bluray_compat=0 / constrained_intra=0 / bframes=3 / b_pyramid=2 / b_adapt=2 / b_bias=0 / direct=3 / weightb=1 / open_gop=0 / weightp=2 / keyint=250 / keyint_min=25 / scenecut=40 / intra_refresh=0 / rc_lookahead=60 / rc=abr / mbtree=1 / bitrate=4131 / ratetol=1.0 / qcomp=0.60 / qpmin=0 / qpmax=69 / qpstep=4 / ip_ratio=1.40 / aq=1:1.00
    Language                                 : English
    Default                                  : Yes
    Forced                                   : No
    
    Audio
    ID                                       : 2
    Format                                   : AC-3
    Format/Info                              : Audio Coding 3
    Commercial name                          : Dolby Digital
    Codec ID                                 : A_AC3
    Duration                                 : 2 h 22 min
    Bit rate mode                            : Constant
    Bit rate                                 : 160 kb/s
    Channel(s)                               : 6 channels
    Channel layout                           : L R C LFE Ls Rs
    Sampling rate                            : 44.1 kHz
    Frame rate                               : 28.711 FPS (1536 SPF)
    Bit depth                                : 16 bits
    Compression mode                         : Lossy
    Stream size                              : 163 MiB (4%)
    Language                                 : English
    Service kind                             : Complete Main
    Default                                  : Yes
    Forced                                   : No
    
    



    2.0 (2018) Tamil Original - 1080p - WEB-HD - AVC - DD5.1-MTR2.0 (2018) Tamil Original - 1080p - WEB-HD - AVC - DD5.1-MTR2.0 (2018) Tamil Original - 1080p - WEB-HD - AVC - DD5.1-MTR2.0 (2018) Tamil Original - 1080p - WEB-HD - AVC - DD5.1-MTR2.0 (2018) Tamil Original - 1080p - WEB-HD - AVC - DD5.1-MTR

    SINGLE DIRECT FAST LINKS

    https://www.heroupload.com/4b747c462cf58328/2.0.2018.Tamil.1080p.HD.AVC.DD5.1-MTR.mkv


    1GB LINKS


    
    https://www.heroupload.com/fd5effef5efd78f1/2.0.2018.Tamil.1080p.HD.AVC.DD5.1-MTR.part1.rar
    https://www.heroupload.com/e776e4c39e4fee59/2.0.2018.Tamil.1080p.HD.AVC.DD5.1-MTR.part2.rar
    https://www.heroupload.com/97c3c5e0065d1e93/2.0.2018.Tamil.1080p.HD.AVC.DD5.1-MTR.part3.rar
    https://www.heroupload.com/565a08e638f4ed2c/2.0.2018.Tamil.1080p.HD.AVC.DD5.1-MTR.part4.rar
    https://www.heroupload.com/27980f7613018597/2.0.2018.Tamil.1080p.HD.AVC.DD5.1-MTR.part5.rar




    Buy Premium From My Links & Support Me

    Comments

    Add Comment!


    Add comment

    Name:*
    E-Mail:
    Comment:
    • winkwinkedsmileam
      belayfeelfellowlaughing
      lollovenorecourse
      requestsadtonguewassat
      cryingwhatbullyangry
    Security Code: *
    reload, if the code cannot be seen