a b c d e f g h i j k l m n o p q r s t u v w x y z 0-9

On the Basis of Sex (2018) 1080p WEB-DL DD5.1 H264-FGT

  • Views: 7 644
  • Author: stev
  • Date: 27-03-2019, 01:31
  • Category: Hollywood BluRay
  • Rating:
    Description of the movie:
    On the Basis of Sex (2018) 1080p WEB-DL DD5.1 H264-FGT





    Format                                   : Matroska
    Format version                           : Version 4
    File size                                : 4.72 GiB
    Duration                                 : 2 h 0 min
    Overall bit rate                         : 5 623 kb/s
    Movie name                               : On.the.Basis.of.Sex.2018.1080p.WEB-DL.DD5.1.H264-FGT
    Encoded date                             : UTC 2019-03-26 07:38:10
    Writing application                      : mkvmerge v32.0.0 ('Astral Progressions') 64-bit
    Writing library                          : libebml v1.3.7 + libmatroska v1.5.0
    Cover                                    : Yes
    Attachments                              : small_cover.jpg / small_cover_land.jpg / cover.jpg / cover_land.jpg
    
    Video
    ID                                       : 1
    Format                                   : AVC
    Format/Info                              : Advanced Video Codec
    Format profile                           : High@L4
    Format settings                          : CABAC / 4 Ref Frames
    Format settings, CABAC                   : Yes
    Format settings, RefFrames               : 4 frames
    Codec ID                                 : V_MPEG4/ISO/AVC
    Duration                                 : 2 h 0 min
    Bit rate                                 : 5 237 kb/s
    Width                                    : 1 916 pixels
    Height                                   : 1 032 pixels
    Display aspect ratio                     : 1.85:1
    Frame rate mode                          : Constant
    Frame rate                               : 23.976 (23976/1000) FPS
    Color space                              : YUV
    Chroma subsampling                       : 4:2:0
    Bit depth                                : 8 bits
    Scan type                                : Progressive
    Bits/(Pixel*Frame)                       : 0.110
    Stream size                              : 4.40 GiB (93%)
    Title                                    : On.the.Basis.of.Sex.2018.1080p.WEB-DL.DD5.1.H264-FGT
    Language                                 : English
    Default                                  : Yes
    Forced                                   : No
    Color range                              : Limited
    Color primaries                          : BT.709
    Transfer characteristics                 : BT.709
    Matrix coefficients                      : BT.709
    
    Audio
    ID                                       : 2
    Format                                   : AC-3
    Format/Info                              : Audio Coding 3
    Commercial name                          : Dolby Digital
    Codec ID                                 : A_AC3
    Duration                                 : 2 h 0 min
    Bit rate mode                            : Constant
    Bit rate                                 : 384 kb/s
    Channel(s)                               : 6 channels
    Channel layout                           : L R C LFE Ls Rs
    Sampling rate                            : 48.0 kHz
    Frame rate                               : 31.250 FPS (1536 SPF)
    Bit depth                                : 16 bits
    Compression mode                         : Lossy
    Delay relative to video                  : -42 ms
    Stream size                              : 330 MiB (7%)
    Title                                    : On.the.Basis.of.Sex.2018.1080p.WEB-DL.DD5.1.H264-FGT
    Language                                 : English
    Service kind                             : Complete Main
    Default                                  : Yes
    Forced                                   : No
    
    Menu
    00:00:00.000                             : en:1
    00:05:12.729                             : en:2
    00:10:06.272                             : en:3
    00:16:25.442                             : en:4
    00:25:51.508                             : en:5
    00:31:50.825                             : en:6
    00:35:20.367                             : en:7
    00:41:05.879                             : en:8
    00:47:27.760                             : en:9
    00:56:50.781                             : en:10
    01:03:53.036                             : en:11
    01:08:50.958                             : en:12
    01:14:48.398                             : en:13
    01:22:02.415                             : en:14
    01:26:14.500                             : en:15
    01:32:33.545                             : en:16
    01:37:41.477                             : en:17
    01:44:09.781                             : en:18
    01:51:08.950                             : en:19
    01:54:36.490                             : en:20
    
    

    On the Basis of Sex (2018) 1080p WEB-DL DD5.1 H264-FGT


    SINGLE DIRECT FAST LINKS

    https://www.heroupload.com/c778c571ec9bf829/On.the.Basis.of.Sex.2018.1080p.WEB-DL.DD5.1.H264-FGT.mkv


    1GB LINKS

    
    https://www.heroupload.com/18a4a29171bb1317/On.the.Basis.of.Sex.2018.1080p.WEB-DL.DD5.1.H264-FGT.part1.rar
    https://www.heroupload.com/cf5243ea3620f48f/On.the.Basis.of.Sex.2018.1080p.WEB-DL.DD5.1.H264-FGT.part2.rar
    https://www.heroupload.com/370af63c1810f864/On.the.Basis.of.Sex.2018.1080p.WEB-DL.DD5.1.H264-FGT.part3.rar
    https://www.heroupload.com/52869a926df437e3/On.the.Basis.of.Sex.2018.1080p.WEB-DL.DD5.1.H264-FGT.part4.rar
    https://www.heroupload.com/032f47479ac41d29/On.the.Basis.of.Sex.2018.1080p.WEB-DL.DD5.1.H264-FGT.part5.rar


    Buy Premium From My Links & Support Me

    Comments

    Add Comment!


    Add comment

    Name:*
    E-Mail:
    Comment:
    • winkwinkedsmileam
      belayfeelfellowlaughing
      lollovenorecourse
      requestsadtonguewassat
      cryingwhatbullyangry
    Security Code: *
    reload, if the code cannot be seen