a b c d e f g h i j k l m n o p q r s t u v w x y z 0-9

Total Dhamaal (2019) Hindi - 1080p - HDRip - x264 - AAC - AF Exclusive

  • Views: 47
  • Author: stev
  • Date: 24-03-2019, 17:22
  • Category: Bollywood BluRay - Full HD
  • Rating:
    Description of the movie:
    Total Dhamaal (2019) Hindi - 1080p - HDRip - x264 - AAC - AF Exclusive




    Format                                   : MPEG-4
    Format profile                           : Base Media / Version 2
    Codec ID                                 : mp42 (mp42)
    File size                                : 2.86 GiB
    Duration                                 : 2 h 10 min
    Overall bit rate                         : 3 148 kb/s
    Codirector                               : codirector
    Production studio                        : studio
    ContentType                              : Unknown Type
    Encoded date                             : UTC 2019-03-24 06:27:43
    Tagged date                              : UTC 2019-03-24 06:27:43
    
    Video
    ID                                       : 1
    Format                                   : AVC
    Format/Info                              : Advanced Video Codec
    Format profile                           : Main@L4.1
    Format settings                          : CABAC / 2 Ref Frames
    Format settings, CABAC                   : Yes
    Format settings, RefFrames               : 2 frames
    Muxing mode                              : Container profile=Baseline@3.0
    Codec ID                                 : avc1
    Codec ID/Info                            : Advanced Video Coding
    Duration                                 : 2 h 10 min
    Bit rate                                 : 3 013 kb/s
    Width                                    : 1 920 pixels
    Height                                   : 1 080 pixels
    Display aspect ratio                     : 16:9
    Frame rate mode                          : Constant
    Frame rate                               : 30.000 FPS
    Color space                              : YUV
    Chroma subsampling                       : 4:2:0
    Bit depth                                : 8 bits
    Scan type                                : Progressive
    Bits/(Pixel*Frame)                       : 0.048
    Stream size                              : 2.74 GiB (96%)
    Language                                 : English
    Codec configuration box                  : avcC
    
    Audio
    ID                                       : 2
    Format                                   : AAC LC
    Format/Info                              : Advanced Audio Codec Low Complexity
    Codec ID                                 : mp4a-40-2
    Duration                                 : 2 h 10 min
    Bit rate mode                            : Constant
    Bit rate                                 : 128 kb/s
    Channel(s)                               : 2 channels
    Channel layout                           : L R
    Sampling rate                            : 44.1 kHz
    Frame rate                               : 43.066 FPS (1024 SPF)
    Compression mode                         : Lossy
    Stream size                              : 119 MiB (4%)
    Title                                    : Stereo
    Language                                 : English
    Default                                  : Yes
    Alternate group                          : 1
    
    

    Total Dhamaal (2019) Hindi - 1080p - HDRip - x264 - AAC - AF Exclusive


    SINGLE DIRECT FAST LINKS

    https://www.heroupload.com/2edbf1f7f4da9a18/Total.Dhamaal.2019.Hindi.HDRip.1080p.x264.5.1-Exclusive.mp4


    700MB LINKS


    
    https://www.heroupload.com/1aa3e80b6ff99cc1/Total.Dhamaal.2019.Hindi.HDRip.1080p.x264.5.1-Exclusive.part1.rar
    https://www.heroupload.com/7f6c3892a749899e/Total.Dhamaal.2019.Hindi.HDRip.1080p.x264.5.1-Exclusive.part2.rar
    https://www.heroupload.com/4a99e816252bca4a/Total.Dhamaal.2019.Hindi.HDRip.1080p.x264.5.1-Exclusive.part3.rar
    https://www.heroupload.com/d398fa886512747a/Total.Dhamaal.2019.Hindi.HDRip.1080p.x264.5.1-Exclusive.part4.rar
    https://www.heroupload.com/786aaab1b319098b/Total.Dhamaal.2019.Hindi.HDRip.1080p.x264.5.1-Exclusive.part5.rar



    Buy Premium From My Links & Support Me

    Comments

    Add Comment!


    Add comment

    Name:*
    E-Mail:
    Comment:
    • winkwinkedsmileam
      belayfeelfellowlaughing
      lollovenorecourse
      requestsadtonguewassat
      cryingwhatbullyangry
    Security Code: *
    reload, if the code cannot be seen