a b c d e f g h i j k l m n o p q r s t u v w x y z 0-9

Potugadu (2013) UNCUT 720p HDRip x264 Esub [Dual Audio][Hindi+Telugu] - DM

  • Views: 3
  • Author: stev
  • Date: 12-03-2019, 01:56
  • Category: South Indian Hindi Dub Movies
  • Rating:
    Description of the movie:
    Potugadu (2013) UNCUT 720p HDRip x264 Esub [Dual Audio][Hindi+Telugu] - DM





    General
    Format                         : Matroska
    Format version                 : Version 4
    File size                      : 1.34 GiB
    Duration                       : 1 h 54 min
    Overall bit rate               : 1 674 kb/s
    
    Video
    ID                             : 1
    Format                         : AVC
    Format/Info                    : Advanced Video Codec
    Format profile                 : High@L4
    Format settings                : CABAC / 8 Ref Frames
    Format settings, CABAC         : Yes
    Format settings, ReFrames      : 8 frames
    Codec ID                       : V_MPEG4/ISO/AVC
    Duration                       : 1 h 54 min
    Bit rate                       : 1 400 kb/s
    Width                          : 1 280 pixels
    Height                         : 546 pixels
    Display aspect ratio           : 2.35:1
    Original display aspect ratio  : 2.35:1
    Frame rate mode                : Constant
    Frame rate                     : 23.976 (24000/1001) FPS
    Color space                    : YUV
    Chroma subsampling             : 4:2:0
    Bit depth                      : 8 bits
    Scan type                      : Progressive
    Default                        : Yes
    Forced                         : No
    Color range                    : Limited
    Color primaries                : BT.709
    Transfer characteristics       : BT.709
    Matrix coefficients            : BT.709
    
    Audio #1
    ID                             : 2
    Format                         : AC-3
    Format/Info                    : Audio Coding 3
    Commercial name                : Dolby Digital
    Codec ID                       : A_AC3
    Duration                       : 1 h 54 min
    Bit rate mode                  : Constant
    Bit rate                       : 192 kb/s
    Channel(s)                     : 2 channels
    Channel layout                 : L R
    Sampling rate                  : 48.0 kHz
    Frame rate                     : 31.250 FPS (1536 SPF)
    Bit depth                      : 16 bits
    Compression mode               : Lossy
    Delay relative to video        : -115 ms
    Stream size                    : 157 MiB (11%)
    Language                       : Hindi
    Service kind                   : Complete Main
    Default                        : Yes
    Forced                         : Yes
    
    Audio #2
    ID                             : 3
    Format                         : AAC LC SBR
    Format/Info                    : Advanced Audio Codec Low Complexity with Spectral Band Replication
    Commercial name                : HE-AAC
    Format settings                : NBC
    Codec ID                       : A_AAC-5
    Duration                       : 1 h 54 min
    Bit rate                       : 80.0 kb/s
    Channel(s)                     : 2 channels
    Channel layout                 : L R
    Sampling rate                  : 44.1 kHz
    Frame rate                     : 21.533 FPS (2048 SPF)
    Compression mode               : Lossy
    Delay relative to video        : -115 ms
    Stream size                    : 65.5 MiB (5%)
    Title                          : Stereo
    Language                       : Telugu
    Default                        : No
    Forced                         : No
    
    Text
    ID                             : 4
    Format                         : UTF-8
    Codec ID                       : S_TEXT/UTF8
    Codec ID/Info                  : UTF-8 Plain Text
    Duration                       : 1 h 48 min
    Bit rate                       : 59 b/s
    Count of elements              : 1386
    Stream size                    : 47.0 KiB (0%)
    Language                       : English
    Default                        : Yes
    Forced                         : No 

    Potugadu (2013) UNCUT 720p HDRip x264 Esub [Dual Audio][Hindi+Telugu] - DM
    SINGLE DIRECT FAST LINKS

    
    https://www.heroupload.com/80167f4b662de0bb/Potugadu_(2013)_UNCUT_720p_HDRip_x264_Esub_[Dual_Audio].mkv


    Buy Premium From My Links & Support Me

    Comments

    Add Comment!


    Add comment

    Name:*
    E-Mail:
    Comment:
    • winkwinkedsmileam
      belayfeelfellowlaughing
      lollovenorecourse
      requestsadtonguewassat
      cryingwhatbullyangry
    Security Code: *
    reload, if the code cannot be seen