a b c d e f g h i j k l m n o p q r s t u v w x y z 0-9

Natana (2019) Telugu - 1080p - WEB-DL - UNTOUCHED - AVC - DD5.1 - ESub-TMV

  • Views: 139
  • Author: stev
  • Date: 9-03-2019, 03:34
  • Category: Telugu Movies
  • Rating:
    Description of the movie:
    Natana (2019) Telugu - 1080p - WEB-DL - UNTOUCHED - AVC - DD5.1 - ESub-TMV





    Format                                   : Matroska
    Format version                           : Version 4
    File size                                : 5.30 GiB
    Duration                                 : 2 h 11 min
    Overall bit rate                         : 5 753 kb/s
    Encoded date                             : UTC 2019-03-08 19:10:43
    Writing application                      : mkvmerge v25.0.0 ('Prog Noir') 32-bit
    Writing library                          : libebml v1.3.6 + libmatroska v1.4.9
    
    Video
    ID                                       : 1
    Format                                   : AVC
    Format/Info                              : Advanced Video Codec
    Format profile                           : High@L4
    Format settings                          : CABAC / 4 Ref Frames
    Format settings, CABAC                   : Yes
    Format settings, RefFrames               : 4 frames
    Codec ID                                 : V_MPEG4/ISO/AVC
    Duration                                 : 2 h 11 min
    Bit rate                                 : 5 111 kb/s
    Width                                    : 1 920 pixels
    Height                                   : 1 080 pixels
    Display aspect ratio                     : 16:9
    Frame rate mode                          : Constant
    Frame rate                               : 24.000 FPS
    Color space                              : YUV
    Chroma subsampling                       : 4:2:0
    Bit depth                                : 8 bits
    Scan type                                : Progressive
    Bits/(Pixel*Frame)                       : 0.103
    Stream size                              : 4.70 GiB (89%)
    Default                                  : Yes
    Forced                                   : No
    Color range                              : Limited
    Color primaries                          : BT.709
    Transfer characteristics                 : BT.709
    Matrix coefficients                      : BT.709
    
    Audio
    ID                                       : 2
    Format                                   : E-AC-3
    Format/Info                              : Enhanced AC-3
    Commercial name                          : Dolby Digital Plus
    Codec ID                                 : A_EAC3
    Duration                                 : 2 h 11 min
    Bit rate mode                            : Constant
    Bit rate                                 : 640 kb/s
    Channel(s)                               : 6 channels
    Channel layout                           : L R C LFE Ls Rs
    Sampling rate                            : 48.0 kHz
    Frame rate                               : 31.250 FPS (1536 SPF)
    Compression mode                         : Lossy
    Stream size                              : 603 MiB (11%)
    Title                                    : Telugu
    Language                                 : Telugu
    Service kind                             : Complete Main
    Default                                  : No
    Forced                                   : No
    
    Text
    ID                                       : 3
    Format                                   : UTF-8
    Codec ID                                 : S_TEXT/UTF8
    Codec ID/Info                            : UTF-8 Plain Text
    Duration                                 : 2 h 5 min
    Bit rate                                 : 61 b/s
    Count of elements                        : 1637
    Stream size                              : 56.9 KiB (0%)
    Title                                    : English [SDH]
    Language                                 : English
    Default                                  : No
    Forced                                   : No
    
    


    Natana (2019) Telugu - 1080p - WEB-DL - UNTOUCHED - AVC - DD5.1 - ESub-TMVNatana (2019) Telugu - 1080p - WEB-DL - UNTOUCHED - AVC - DD5.1 - ESub-TMVNatana (2019) Telugu - 1080p - WEB-DL - UNTOUCHED - AVC - DD5.1 - ESub-TMVNatana (2019) Telugu - 1080p - WEB-DL - UNTOUCHED - AVC - DD5.1 - ESub-TMVNatana (2019) Telugu - 1080p - WEB-DL - UNTOUCHED - AVC - DD5.1 - ESub-TMVNatana (2019) Telugu - 1080p - WEB-DL - UNTOUCHED - AVC - DD5.1 - ESub-TMV

    SINGLE DIRECT FAST LINKS

    https://www.heroupload.com/080e0eb193720961/Natana.2019.Telugu.WEB-DL.1080p.UNTOUCHED.AVC.DD5.1.ESub-TMV.mkv


    1GB LINKS

    
    https://www.heroupload.com/bb85baeed559254b/Natana.2019.Telugu.WEB-DL.1080p.UNTOUCHED.AVC.DD5.1.ESub-TMV.part1.rar
    https://www.heroupload.com/f7d865d2726a4cbd/Natana.2019.Telugu.WEB-DL.1080p.UNTOUCHED.AVC.DD5.1.ESub-TMV.part2.rar
    https://www.heroupload.com/0465691cb2d8b715/Natana.2019.Telugu.WEB-DL.1080p.UNTOUCHED.AVC.DD5.1.ESub-TMV.part3.rar
    https://www.heroupload.com/4b3fc75958c41628/Natana.2019.Telugu.WEB-DL.1080p.UNTOUCHED.AVC.DD5.1.ESub-TMV.part4.rar
    https://www.heroupload.com/d15eb2988226f123/Natana.2019.Telugu.WEB-DL.1080p.UNTOUCHED.AVC.DD5.1.ESub-TMV.part5.rar
    https://www.heroupload.com/d8231959556f4b7f/Natana.2019.Telugu.WEB-DL.1080p.UNTOUCHED.AVC.DD5.1.ESub-TMV.part6.rar


    Buy Premium From My Links & Support Me

    Comments

    Add Comment!


    Add comment

    Name:*
    E-Mail:
    Comment:
    • winkwinkedsmileam
      belayfeelfellowlaughing
      lollovenorecourse
      requestsadtonguewassat
      cryingwhatbullyangry
    Security Code: *
    reload, if the code cannot be seen