a b c d e f g h i j k l m n o p q r s t u v w x y z 0-9

Uri: The Surgical Strike (2019) 1080p - UNTOUCHED - HD-Screening - AVC - AAC - AF Exc

  • Views: 39
  • Author: stev
  • Date: 27-02-2019, 11:21
  • Category: Bollywood Latest Movies CAM/pDVD/DVDscr
  • Rating:
    Description of the movie:
    Uri: The Surgical Strike (2019) 1080p - UNTOUCHED - HD-Screening - AVC - AAC - AF Exc





    Format                                   : Matroska
    Format version                           : Version 4
    File size                                : 1.96 GiB
    Duration                                 : 2 h 18 min
    Overall bit rate                         : 2 025 kb/s
    Encoded date                             : UTC 2019-02-27 08:07:42
    Writing application                      : mkvmerge v29.0.0 ('Like It Or Not') 32-bit
    Writing library                          : libebml v1.3.6 + libmatroska v1.4.9
    
    Video
    ID                                       : 1
    Format                                   : AVC
    Format/Info                              : Advanced Video Codec
    Format profile                           : Main@L4
    Format settings                          : CABAC / 4 Ref Frames
    Format settings, CABAC                   : Yes
    Format settings, RefFrames               : 4 frames
    Format settings, GOP                     : M=4, N=24
    Codec ID                                 : V_MPEG4/ISO/AVC
    Duration                                 : 2 h 18 min
    Bit rate                                 : 1 892 kb/s
    Width                                    : 1 920 pixels
    Height                                   : 1 080 pixels
    Display aspect ratio                     : 16:9
    Frame rate mode                          : Constant
    Frame rate                               : 24.000 FPS
    Color space                              : YUV
    Chroma subsampling                       : 4:2:0
    Bit depth                                : 8 bits
    Scan type                                : Progressive
    Bits/(Pixel*Frame)                       : 0.038
    Stream size                              : 1.83 GiB (93%)
    Default                                  : Yes
    Forced                                   : No
    
    Audio
    ID                                       : 2
    Format                                   : AAC LC
    Format/Info                              : Advanced Audio Codec Low Complexity
    Codec ID                                 : A_AAC-2
    Duration                                 : 2 h 18 min
    Bit rate                                 : 132 kb/s
    Channel(s)                               : 2 channels
    Channel layout                           : L R
    Sampling rate                            : 48.0 kHz
    Frame rate                               : 46.875 FPS (1024 SPF)
    Compression mode                         : Lossy
    Delay relative to video                  : 15 ms
    Stream size                              : 129 MiB (6%)
    Default                                  : Yes
    Forced                                   : No
    
    


    Uri: The Surgical Strike (2019) 1080p - UNTOUCHED - HD-Screening - AVC - AAC - AF ExcUri: The Surgical Strike (2019) 1080p - UNTOUCHED - HD-Screening - AVC - AAC - AF ExcUri: The Surgical Strike (2019) 1080p - UNTOUCHED - HD-Screening - AVC - AAC - AF ExcUri: The Surgical Strike (2019) 1080p - UNTOUCHED - HD-Screening - AVC - AAC - AF ExcUri: The Surgical Strike (2019) 1080p - UNTOUCHED - HD-Screening - AVC - AAC - AF ExcUri: The Surgical Strike (2019) 1080p - UNTOUCHED - HD-Screening - AVC - AAC - AF Exc



    SINGLE DIRECT FAST LINKS

    
    https://www.heroupload.com/579acf08f5e3405a/URI-The.Surgical.Strike.2019.Hindi.1080p.HD-Screening.OrgDD5.1-Exclusive.mkv



    Buy Premium From My Links & Support Me

    Comments

    Add Comment!


    Add comment

    Name:*
    E-Mail:
    Comment:
    • winkwinkedsmileam
      belayfeelfellowlaughing
      lollovenorecourse
      requestsadtonguewassat
      cryingwhatbullyangry
    Security Code: *
    reload, if the code cannot be seen