a b c d e f g h i j k l m n o p q r s t u v w x y z 0-9

Puncch Beat - Complete Episode 1-13 - HQ 1080p - WEB-DL - AVC - AAC-ALT Balaji Exclus

  • Views: 18
  • Author: stev
  • Date: 21-02-2019, 23:33
  • Category: Indian TV Shows
  • Rating:
    Description of the movie:
    Puncch Beat - Complete Episode 1-13 - HQ 1080p - WEB-DL - AVC - AAC-ALT Balaji Exclus





    Overall bit rate                         : 12.2 Mb/s
    Writing application                      : Lavf58.17.101
    
    Video
    ID                                       : 1
    Format                                   : AVC
    Format/Info                              : Advanced Video Codec
    Format profile                           : High@L4
    Format settings                          : CABAC / 4 Ref Frames
    Format settings, CABAC                   : Yes
    Format settings, RefFrames               : 4 frames
    Codec ID                                 : avc1
    Codec ID/Info                            : Advanced Video Coding
    Duration                                 : 26 min 8 s
    Bit rate                                 : 12.0 Mb/s
    Width                                    : 1 920 pixels
    Height                                   : 1 088 pixels
    Display aspect ratio                     : 16:9
    Frame rate mode                          : Constant
    Frame rate                               : 25.000 FPS
    Color space                              : YUV
    Chroma subsampling                       : 4:2:0
    Bit depth                                : 8 bits
    Scan type                                : Progressive
    Bits/(Pixel*Frame)                       : 0.230
    Stream size                              : 2.19 GiB (98%)
    Writing library                          : x264 core 138
    
    Audio
    ID                                       : 2
    Format                                   : AAC
    Format/Info                              : Advanced Audio Codec
    Format profile                           : LC
    Codec ID                                 : mp4a-40-2
    Duration                                 : 26 min 8 s
    Bit rate mode                            : Constant
    Bit rate                                 : 192 kb/s
    Channel(s)                               : 2 channels
    Channel positions                        : Front: L R
    Sampling rate                            : 48.0 kHz
    Frame rate                               : 46.875 FPS (1024 SPF)
    Compression mode                         : Lossy
    Stream size                              : 35.9 MiB (2%)
    Default                                  : Yes
    Alternate group                          : 1


    Puncch Beat - Complete Episode 1-13 - HQ 1080p - WEB-DL - AVC - AAC-ALT Balaji ExclusPuncch Beat - Complete Episode 1-13 - HQ 1080p - WEB-DL - AVC - AAC-ALT Balaji ExclusPuncch Beat - Complete Episode 1-13 - HQ 1080p - WEB-DL - AVC - AAC-ALT Balaji ExclusPuncch Beat - Complete Episode 1-13 - HQ 1080p - WEB-DL - AVC - AAC-ALT Balaji ExclusPuncch Beat - Complete Episode 1-13 - HQ 1080p - WEB-DL - AVC - AAC-ALT Balaji ExclusPuncch Beat - Complete Episode 1-13 - HQ 1080p - WEB-DL - AVC - AAC-ALT Balaji ExclusPuncch Beat - Complete Episode 1-13 - HQ 1080p - WEB-DL - AVC - AAC-ALT Balaji ExclusPuncch Beat - Complete Episode 1-13 - HQ 1080p - WEB-DL - AVC - AAC-ALT Balaji ExclusPuncch Beat - Complete Episode 1-13 - HQ 1080p - WEB-DL - AVC - AAC-ALT Balaji ExclusPuncch Beat - Complete Episode 1-13 - HQ 1080p - WEB-DL - AVC - AAC-ALT Balaji Exclus
    SINGLE DIRECT FAST LINKS

    https://www.heroupload.com/a92b52b1d0a5cdc3/Episode_1.mp4
    https://www.heroupload.com/f5d3cddb01cd3c33/Episode_2.mp4
    https://www.heroupload.com/a790ea8adac8c2cb/Episode_3.mp4
    https://www.heroupload.com/6f0b154b83524085/Episode_4.mp4
    https://www.heroupload.com/0c48b237cb02836d/Episode_5.mp4
    https://www.heroupload.com/1c3cedcb94654b4e/Episode_6.mp4
    https://www.heroupload.com/2b996e8bad2e523a/Episode_7.mp4
    https://www.heroupload.com/2e02517ec1377464/Episode_8.mp4
    https://www.heroupload.com/3836c13ccf48ee16/Episode_9.mp4
    https://www.heroupload.com/15554d2c6fb0f016/Episode_10.mp4
    https://www.heroupload.com/62208de8a184b4da/Episode_11.mp4
    https://www.heroupload.com/ebc5764830ff3c93/Episode_12.mp4
    https://www.heroupload.com/62e3a6eb4deb59a2/Episode_13.mp4



    Buy Premium From My Links & Support Me

    Comments

    Add Comment!


    Add comment

    Name:*
    E-Mail:
    Comment:
    • winkwinkedsmileam
      belayfeelfellowlaughing
      lollovenorecourse
      requestsadtonguewassat
      cryingwhatbullyangry
    Security Code: *
    reload, if the code cannot be seen