a b c d e f g h i j k l m n o p q r s t u v w x y z 0-9

Daas Dev (2018) 1080p - WEB-DL - UNTOUCHED - AVC - AAC-AF Exclusive

  • Views: 23
  • Author: stev
  • Date: 20-02-2019, 00:47
  • Category: Bollywood BluRay - Full HD
  • Rating:
    Description of the movie:
    Daas Dev (2018) 1080p - WEB-DL - UNTOUCHED - AVC - AAC-AF Exclusive





    Format                                   : MPEG-4
    Format profile                           : Base Media
    Codec ID                                 : isom (isom/iso2/avc1/mp41)
    File size                                : 2.02 GiB
    Duration                                 : 2 h 11 min
    Overall bit rate                         : 2 196 kb/s
    Writing application                      : Lavf58.12.100
    
    Video
    ID                                       : 1
    Format                                   : AVC
    Format/Info                              : Advanced Video Codec
    Format profile                           : High@L4
    Format settings                          : CABAC / 4 Ref Frames
    Format settings, CABAC                   : Yes
    Format settings, RefFrames               : 4 frames
    Codec ID                                 : avc1
    Codec ID/Info                            : Advanced Video Coding
    Duration                                 : 2 h 11 min
    Bit rate                                 : 2 094 kb/s
    Nominal bit rate                         : 2 200 kb/s
    Width                                    : 1 920 pixels
    Height                                   : 1 080 pixels
    Display aspect ratio                     : 16:9
    Frame rate mode                          : Constant
    Frame rate                               : 25.000 FPS
    Color space                              : YUV
    Chroma subsampling                       : 4:2:0
    Bit depth                                : 8 bits
    Scan type                                : Progressive
    Bits/(Pixel*Frame)                       : 0.040
    Stream size                              : 1.93 GiB (95%)
    Writing library                          : x264 core 152 r2854 e9a5903
    Encoding settings                        : cabac=1 / ref=3 / deblock=1:0:0 / analyse=0x3:0x113 / me=hex / subme=7 / psy=1 / psy_rd=1.00:0.00 / mixed_ref=1 / me_range=16 / chroma_me=1 / trellis=1 / 8x8dct=1 / cqm=0 / deadzone=21,11 / fast_pskip=1 / chroma_qp_offset=-2 / threads=34 / lookahead_threads=5 / sliced_threads=0 / nr=0 / decimate=1 / interlaced=0 / bluray_compat=0 / constrained_intra=0 / bframes=3 / b_pyramid=2 / b_adapt=1 / b_bias=0 / direct=1 / weightb=1 / open_gop=0 / weightp=2 / keyint=50 / keyint_min=26 / scenecut=0 / intra_refresh=0 / rc_lookahead=40 / rc=abr / mbtree=1 / bitrate=2200 / ratetol=1.0 / qcomp=0.60 / qpmin=0 / qpmax=69 / qpstep=4 / vbv_maxrate=2860 / vbv_bufsize=3300 / nal_hrd=none / filler=0 / ip_ratio=1.40 / aq=1:1.00
    Codec configuration box                  : avcC
    
    Audio
    ID                                       : 2
    Format                                   : AAC LC
    Format/Info                              : Advanced Audio Codec Low Complexity
    Codec ID                                 : mp4a-40-2
    Duration                                 : 2 h 11 min
    Bit rate mode                            : Constant
    Bit rate                                 : 96.0 kb/s
    Channel(s)                               : 2 channels
    Channel layout                           : L R
    Sampling rate                            : 48.0 kHz
    Frame rate                               : 46.875 FPS (1024 SPF)
    Compression mode                         : Lossy
    Stream size                              : 90.3 MiB (4%)
    Language                                 : English
    Default                                  : Yes
    Alternate group                          : 1
    
    

    Daas Dev (2018) 1080p - WEB-DL - UNTOUCHED - AVC - AAC-AF ExclusiveDaas Dev (2018) 1080p - WEB-DL - UNTOUCHED - AVC - AAC-AF ExclusiveDaas Dev (2018) 1080p - WEB-DL - UNTOUCHED - AVC - AAC-AF ExclusiveDaas Dev (2018) 1080p - WEB-DL - UNTOUCHED - AVC - AAC-AF ExclusiveDaas Dev (2018) 1080p - WEB-DL - UNTOUCHED - AVC - AAC-AF Exclusive

    SINGLE DIRECT FAST LINKS

    https://www.heroupload.com/f840b1f384c05458/Daas.Dev.2018.Hindi.WEB-DL.1080p.UNTOUCHED-AF.mp4


    700MB LINKS


    
    https://www.heroupload.com/db2a0e37083aa5f4/Daas.Dev.2018.Hindi.WEB-DL.1080p.UNTOUCHED-AF.part1.rar
    https://www.heroupload.com/435fbc1d7120d6a8/Daas.Dev.2018.Hindi.WEB-DL.1080p.UNTOUCHED-AF.part2.rar
    https://www.heroupload.com/b59435fdff30c911/Daas.Dev.2018.Hindi.WEB-DL.1080p.UNTOUCHED-AF.part3.rar


    Buy Premium From My Links & Support Me

    Comments

    Add Comment!


    Add comment

    Name:*
    E-Mail:
    Comment:
    • winkwinkedsmileam
      belayfeelfellowlaughing
      lollovenorecourse
      requestsadtonguewassat
      cryingwhatbullyangry
    Security Code: *
    reload, if the code cannot be seen