a b c d e f g h i j k l m n o p q r s t u v w x y z 0-9

K.G.F: Chapter 1 (2018) Malayalam - 1080p - WEB-DL - UNTOUCHED - AVC - DD5.1-DDR

  • Views: 80
  • Author: stev
  • Date: 4-02-2019, 22:42
  • Category: Malayalam Movies
  • Rating:
    Description of the movie:
    K.G.F: Chapter 1 (2018) Malayalam - 1080p - WEB-DL - UNTOUCHED - AVC - DD5.1-DDR





    Format                                   : Matroska
    Format version                           : Version 4
    File size                                : 7.74 GiB
    Duration                                 : 2 h 34 min
    Overall bit rate                         : 7 171 kb/s
    Encoded date                             : UTC 2019-02-04 20:23:42
    Writing application                      : mkvmerge v25.0.0 ('Prog Noir') 32-bit
    Writing library                          : libebml v1.3.6 + libmatroska v1.4.9
    
    Video
    ID                                       : 1
    Format                                   : AVC
    Format/Info                              : Advanced Video Codec
    Format profile                           : [email protected]
    Format settings                          : CABAC / 4 Ref Frames
    Format settings, CABAC                   : Yes
    Format settings, RefFrames               : 4 frames
    Codec ID                                 : V_MPEG4/ISO/AVC
    Duration                                 : 2 h 34 min
    Bit rate                                 : 6 529 kb/s
    Width                                    : 1 920 pixels
    Height                                   : 816 pixels
    Display aspect ratio                     : 2.35:1
    Frame rate mode                          : Constant
    Frame rate                               : 25.000 FPS
    Color space                              : YUV
    Chroma subsampling                       : 4:2:0
    Bit depth                                : 8 bits
    Scan type                                : Progressive
    Bits/(Pixel*Frame)                       : 0.167
    Stream size                              : 7.05 GiB (91%)
    Default                                  : Yes
    Forced                                   : No
    Color range                              : Limited
    Color primaries                          : BT.709
    Transfer characteristics                 : BT.709
    Matrix coefficients                      : BT.709
    
    Audio
    ID                                       : 2
    Format                                   : E-AC-3
    Format/Info                              : Enhanced AC-3
    Commercial name                          : Dolby Digital Plus
    Codec ID                                 : A_EAC3
    Duration                                 : 2 h 34 min
    Bit rate mode                            : Constant
    Bit rate                                 : 640 kb/s
    Channel(s)                               : 6 channels
    Channel layout                           : L R C LFE Ls Rs
    Sampling rate                            : 48.0 kHz
    Frame rate                               : 31.250 FPS (1536 SPF)
    Compression mode                         : Lossy
    Stream size                              : 707 MiB (9%)
    Title                                    : Malayalam
    Language                                 : Malayalam
    Service kind                             : Complete Main
    Default                                  : No
    Forced                                   : No
    
    Text
    ID                                       : 3
    Format                                   : UTF-8
    Codec ID                                 : S_TEXT/UTF8
    Codec ID/Info                            : UTF-8 Plain Text
    Duration                                 : 2 h 28 min
    Bit rate                                 : 56 b/s
    Count of elements                        : 2236
    Stream size                              : 62.0 KiB (0%)
    Title                                    : English [SDH]
    Language                                 : English
    Default                                  : No
    Forced                                   : No
    
    


    K.G.F: Chapter 1 (2018) Malayalam - 1080p - WEB-DL - UNTOUCHED - AVC - DD5.1-DDRK.G.F: Chapter 1 (2018) Malayalam - 1080p - WEB-DL - UNTOUCHED - AVC - DD5.1-DDRK.G.F: Chapter 1 (2018) Malayalam - 1080p - WEB-DL - UNTOUCHED - AVC - DD5.1-DDRK.G.F: Chapter 1 (2018) Malayalam - 1080p - WEB-DL - UNTOUCHED - AVC - DD5.1-DDRK.G.F: Chapter 1 (2018) Malayalam - 1080p - WEB-DL - UNTOUCHED - AVC - DD5.1-DDRK.G.F: Chapter 1 (2018) Malayalam - 1080p - WEB-DL - UNTOUCHED - AVC - DD5.1-DDR


    SINGLE DIRECT FAST LINKS

    https://www.heroupload.com/a1b7e84bf654f6f6/K.G.F.Chapter.1.2018.Malayalam.WEB-DL.1080p.UNTOUCHED.AVC.DD5.1.ESub-DDR.mkv


    1GB LINKS

    
    https://www.heroupload.com/6d0b110f85298038/K.G.F.Chapter.1.2018.Malayalam.WEB-DL.1080p.UNTOUCHED.AVC.DD5.1.ESub-DDR.part1.rar
    https://www.heroupload.com/9694c5b41dfd0898/K.G.F.Chapter.1.2018.Malayalam.WEB-DL.1080p.UNTOUCHED.AVC.DD5.1.ESub-DDR.part2.rar
    https://www.heroupload.com/b5c78da3ece17eae/K.G.F.Chapter.1.2018.Malayalam.WEB-DL.1080p.UNTOUCHED.AVC.DD5.1.ESub-DDR.part3.rar
    https://www.heroupload.com/1252e229e46ee02e/K.G.F.Chapter.1.2018.Malayalam.WEB-DL.1080p.UNTOUCHED.AVC.DD5.1.ESub-DDR.part4.rar
    https://www.heroupload.com/6cc1e9af68281e63/K.G.F.Chapter.1.2018.Malayalam.WEB-DL.1080p.UNTOUCHED.AVC.DD5.1.ESub-DDR.part5.rar
    https://www.heroupload.com/3fff0db8ca6a009c/K.G.F.Chapter.1.2018.Malayalam.WEB-DL.1080p.UNTOUCHED.AVC.DD5.1.ESub-DDR.part6.rar
    https://www.heroupload.com/baa8dae7aad18726/K.G.F.Chapter.1.2018.Malayalam.WEB-DL.1080p.UNTOUCHED.AVC.DD5.1.ESub-DDR.part7.rar
    https://www.heroupload.com/d2bf5942711567ae/K.G.F.Chapter.1.2018.Malayalam.WEB-DL.1080p.UNTOUCHED.AVC.DD5.1.ESub-DDR.part8.rar


    Buy Premium From My Links & Support Me

    Comments

    Add Comment!


    Add comment

    Name:*
    E-Mail:
    Comment:
    • winkwinkedsmileam
      belayfeelfellowlaughing
      lollovenorecourse
      requestsadtonguewassat
      cryingwhatbullyangry
    Security Code: *
    reload, if the code cannot be seen