a b c d e f g h i j k l m n o p q r s t u v w x y z 0-9

No. 1 Dilwala (Vunnadhi Okate Zindagi) (2019) Hindi - 720p - WEB-HD - AVC - AAC-GM

  • Views: 258
  • Author: stev
  • Date: 2-02-2019, 00:51
  • Category: South Indian Hindi Dub Movies
  • Rating:
    Description of the movie:
    No. 1 Dilwala (Vunnadhi Okate Zindagi) (2019) Hindi - 720p - WEB-HD - AVC - AAC-GM





    Format                                   : MPEG-4
    Format profile                           : Base Media / Version 2
    Codec ID                                 : mp42 (isom/mp42)
    File size                                : 1.41 GiB
    Duration                                 : 2 h 4 min
    Overall bit rate mode                    : Variable
    Overall bit rate                         : 1 620 kb/s
    Encoded date                             : UTC 2019-01-08 07:54:21
    Tagged date                              : UTC 2019-01-08 07:54:21
    gsst                                     : 0
    gstd                                     : 7455741
    
    Video
    ID                                       : 1
    Format                                   : AVC
    Format/Info                              : Advanced Video Codec
    Format profile                           : Main@L3.1
    Format settings                          : CABAC / 3 Ref Frames
    Format settings, CABAC                   : Yes
    Format settings, RefFrames               : 3 frames
    Codec ID                                 : avc1
    Codec ID/Info                            : Advanced Video Coding
    Duration                                 : 2 h 4 min
    Bit rate                                 : 1 488 kb/s
    Width                                    : 1 280 pixels
    Height                                   : 720 pixels
    Display aspect ratio                     : 16:9
    Frame rate mode                          : Constant
    Frame rate                               : 25.000 FPS
    Color space                              : YUV
    Chroma subsampling                       : 4:2:0
    Bit depth                                : 8 bits
    Scan type                                : Progressive
    Bits/(Pixel*Frame)                       : 0.065
    Stream size                              : 1.29 GiB (92%)
    Title                                    : ISO Media file produced by Google Inc. Created on: 01/07/2019.
    Encoded date                             : UTC 2019-01-08 07:54:21
    Tagged date                              : UTC 2019-01-08 07:54:21
    Color range                              : Limited
    Color primaries                          : BT.709
    Transfer characteristics                 : BT.709
    Matrix coefficients                      : BT.709
    Codec configuration box                  : avcC
    
    Audio
    ID                                       : 2
    Format                                   : AAC LC
    Format/Info                              : Advanced Audio Codec Low Complexity
    Codec ID                                 : mp4a-40-2
    Duration                                 : 2 h 4 min
    Bit rate mode                            : Variable
    Bit rate                                 : 128 kb/s
    Channel(s)                               : 2 channels
    Channel layout                           : L R
    Sampling rate                            : 44.1 kHz
    Frame rate                               : 43.066 FPS (1024 SPF)
    Compression mode                         : Lossy
    Stream size                              : 114 MiB (8%)
    Title                                    : ISO Media file produced by Google Inc. Created on: 01/07/2019.
    Language                                 : English
    Encoded date                             : UTC 2019-01-08 07:54:21
    Tagged date                              : UTC 2019-01-08 07:54:21
    
    



    No. 1 Dilwala (Vunnadhi Okate Zindagi) (2019) Hindi - 720p - WEB-HD - AVC - AAC-GMNo. 1 Dilwala (Vunnadhi Okate Zindagi) (2019) Hindi - 720p - WEB-HD - AVC - AAC-GMNo. 1 Dilwala (Vunnadhi Okate Zindagi) (2019) Hindi - 720p - WEB-HD - AVC - AAC-GMNo. 1 Dilwala (Vunnadhi Okate Zindagi) (2019) Hindi - 720p - WEB-HD - AVC - AAC-GMNo. 1 Dilwala (Vunnadhi Okate Zindagi) (2019) Hindi - 720p - WEB-HD - AVC - AAC-GMNo. 1 Dilwala (Vunnadhi Okate Zindagi) (2019) Hindi - 720p - WEB-HD - AVC - AAC-GMNo. 1 Dilwala (Vunnadhi Okate Zindagi) (2019) Hindi - 720p - WEB-HD - AVC - AAC-GM


    SINGLE DIRECT FAST LINKS

    
    https://www.heroupload.com/804e56ef3354b6d6/No.1.Dilwala-Vunnadhi.Okate.Zindagi.2019.720p.WEB-HD.AVC.AAC-GM.mp4




    Buy Premium From My Links & Support Me

    Comments

    Add Comment!


    Add comment

    Name:*
    E-Mail:
    Comment:
    • winkwinkedsmileam
      belayfeelfellowlaughing
      lollovenorecourse
      requestsadtonguewassat
      cryingwhatbullyangry
    Security Code: *
    reload, if the code cannot be seen