a b c d e f g h i j k l m n o p q r s t u v w x y z 0-9

Mohalla Assi (2018) 720p - WEB-DL - UNTOUCHED - AVC - DD5.1 - ESub-TT Exclusive

  • Views: 274
  • Author: stev
  • Date: 1-02-2019, 00:57
  • Category: Bollywood BluRay - Full HD
  • Rating:
    Description of the movie:
    Mohalla Assi (2018) 720p - WEB-DL - UNTOUCHED - AVC - DD5.1 - ESub-TT Exclusive




    Format                                   : Matroska
    Format version                           : Version 4
    File size                                : 2.56 GiB
    Duration                                 : 1 h 57 min
    Overall bit rate                         : 3 119 kb/s
    Encoded date                             : UTC 2019-01-31 21:38:24
    Writing application                      : mkvmerge v25.0.0 ('Prog Noir') 32-bit
    Writing library                          : libebml v1.3.6 + libmatroska v1.4.9
    
    Video
    ID                                       : 1
    Format                                   : AVC
    Format/Info                              : Advanced Video Codec
    Format profile                           : High@L3.1
    Format settings                          : CABAC / 5 Ref Frames
    Format settings, CABAC                   : Yes
    Format settings, RefFrames               : 5 frames
    Codec ID                                 : V_MPEG4/ISO/AVC
    Duration                                 : 1 h 57 min
    Bit rate                                 : 2 477 kb/s
    Width                                    : 1 280 pixels
    Height                                   : 544 pixels
    Display aspect ratio                     : 2.35:1
    Original display aspect ratio            : 2.35:1
    Frame rate mode                          : Constant
    Frame rate                               : 24.000 FPS
    Color space                              : YUV
    Chroma subsampling                       : 4:2:0
    Bit depth                                : 8 bits
    Scan type                                : Progressive
    Bits/(Pixel*Frame)                       : 0.148
    Stream size                              : 2.04 GiB (79%)
    Default                                  : Yes
    Forced                                   : No
    Color range                              : Limited
    Color primaries                          : BT.709
    Transfer characteristics                 : BT.709
    Matrix coefficients                      : BT.709
    
    Audio
    ID                                       : 2
    Format                                   : E-AC-3
    Format/Info                              : Enhanced AC-3
    Commercial name                          : Dolby Digital Plus
    Codec ID                                 : A_EAC3
    Duration                                 : 1 h 57 min
    Bit rate mode                            : Constant
    Bit rate                                 : 640 kb/s
    Channel(s)                               : 6 channels
    Channel layout                           : L R C LFE Ls Rs
    Sampling rate                            : 48.0 kHz
    Frame rate                               : 31.250 FPS (1536 SPF)
    Compression mode                         : Lossy
    Stream size                              : 539 MiB (21%)
    Title                                    : Hindi
    Language                                 : Hindi
    Service kind                             : Complete Main
    Default                                  : No
    Forced                                   : No
    
    Text
    ID                                       : 3
    Format                                   : UTF-8
    Codec ID                                 : S_TEXT/UTF8
    Codec ID/Info                            : UTF-8 Plain Text
    Duration                                 : 1 h 55 min
    Bit rate                                 : 79 b/s
    Count of elements                        : 2026
    Stream size                              : 66.9 KiB (0%)
    Title                                    : English [SDH]
    Language                                 : English
    Default                                  : No
    Forced                                   : No
    
    Menu
    00:00:00.000                             : en:Studio Logo
    00:00:29.000                             : en:Disclaimer
    00:00:54.000                             : en:Title Sequence
    00:01:25.000                             : en:Scene 4
    00:09:20.000                             : en:Scene 5
    00:13:03.000                             : en:Scene 6
    00:21:31.000                             : en:Scene 7
    00:30:23.000                             : en:Scene 8
    00:36:55.000                             : en:Scene 9
    00:39:57.000                             : en:Scene 10
    00:48:31.000                             : en:Scene 11
    00:53:55.000                             : en:Scene 12
    01:01:32.000                             : en:Scene 13
    01:08:03.000                             : en:Scene 14
    01:17:40.000                             : en:Scene 15
    01:23:16.000                             : en:Scene 16
    01:36:09.000                             : en:Scene 17
    01:45:37.000                             : en:Scene 18
    01:52:11.000                             : en:End Credits
    
    

    Mohalla Assi (2018) 720p - WEB-DL - UNTOUCHED - AVC - DD5.1 - ESub-TT ExclusiveMohalla Assi (2018) 720p - WEB-DL - UNTOUCHED - AVC - DD5.1 - ESub-TT ExclusiveMohalla Assi (2018) 720p - WEB-DL - UNTOUCHED - AVC - DD5.1 - ESub-TT ExclusiveMohalla Assi (2018) 720p - WEB-DL - UNTOUCHED - AVC - DD5.1 - ESub-TT ExclusiveMohalla Assi (2018) 720p - WEB-DL - UNTOUCHED - AVC - DD5.1 - ESub-TT ExclusiveMohalla Assi (2018) 720p - WEB-DL - UNTOUCHED - AVC - DD5.1 - ESub-TT ExclusiveMohalla Assi (2018) 720p - WEB-DL - UNTOUCHED - AVC - DD5.1 - ESub-TT ExclusiveMohalla Assi (2018) 720p - WEB-DL - UNTOUCHED - AVC - DD5.1 - ESub-TT Exclusive

    SINGLE DIRECT FAST LINKS

    https://www.heroupload.com/4425ccfcd0f88b89/Mohalla.Assi.2018.Hindi.WEB-DL.720p.UNTOUCHED.DD5.1.640Kbps.ESub-TT.Exclusive.mkv


    700MB LINKS

    
    https://www.heroupload.com/c951ed25f518fcbc/Mohalla.Assi.2018.Hindi.WEB-DL.720p.UNTOUCHED.DD5.1.640Kbps.ESub-TT.Exclusive.part1.rar
    https://www.heroupload.com/86c4917963d070f6/Mohalla.Assi.2018.Hindi.WEB-DL.720p.UNTOUCHED.DD5.1.640Kbps.ESub-TT.Exclusive.part2.rar
    https://www.heroupload.com/4eb974efc8f3d70e/Mohalla.Assi.2018.Hindi.WEB-DL.720p.UNTOUCHED.DD5.1.640Kbps.ESub-TT.Exclusive.part3.rar
    https://www.heroupload.com/14e7363a1e0af445/Mohalla.Assi.2018.Hindi.WEB-DL.720p.UNTOUCHED.DD5.1.640Kbps.ESub-TT.Exclusive.part4.rar





    Buy Premium From My Links & Support Me

    Comments

    Add Comment!


    Add comment

    Name:*
    E-Mail:
    Comment:
    • winkwinkedsmileam
      belayfeelfellowlaughing
      lollovenorecourse
      requestsadtonguewassat
      cryingwhatbullyangry
    Security Code: *
    reload, if the code cannot be seen