a b c d e f g h i j k l m n o p q r s t u v w x y z 0-9

Adanga Maru (2018) Tamil - 1080p - WEB-HD - AVC - DD5.1 - ESubs-MTR

  • Views: 452
  • Author: stev
  • Date: 25-01-2019, 23:13
  • Category: Tamil Movies
  • Rating:
    Description of the movie:
    Adanga Maru (2018) Tamil - 1080p - WEB-HD - AVC - DD5.1 - ESubs-MTR





    Format                                   : MPEG-TS
    File size                                : 9.32 GiB
    Duration                                 : 2 h 24 min
    Overall bit rate mode                    : Variable
    Overall bit rate                         : 9 242 kb/s
    FileExtension_Invalid                    : ts m2t m2s m4t m4s tmf ts tp trp ty
    
    Video
    ID                                       : 481 (0x1E1)
    Menu ID                                  : 1 (0x1)
    Format                                   : AVC
    Format/Info                              : Advanced Video Codec
    Format profile                           : High@L4
    Format settings                          : CABAC / 3 Ref Frames
    Format settings, CABAC                   : Yes
    Format settings, RefFrames               : 3 frames
    Codec ID                                 : 27
    Duration                                 : 2 h 24 min
    Bit rate mode                            : Constant
    Bit rate                                 : 8 500 kb/s
    Maximum bit rate                         : 8 970 kb/s
    Width                                    : 1 920 pixels
    Height                                   : 1 080 pixels
    Display aspect ratio                     : 16:9
    Frame rate                               : 29.970 (30000/1001) FPS
    Color space                              : YUV
    Chroma subsampling                       : 4:2:0
    Bit depth                                : 8 bits
    Scan type                                : Progressive
    Bits/(Pixel*Frame)                       : 0.137
    Stream size                              : 8.33 GiB (89%)
    Color range                              : Limited
    Color primaries                          : BT.709
    Transfer characteristics                 : BT.709
    Matrix coefficients                      : BT.709
    
    Audio
    ID                                       : 482 (0x1E2)
    Menu ID                                  : 1 (0x1)
    Format                                   : AC-3
    Format/Info                              : Audio Coding 3
    Commercial name                          : Dolby Digital
    Codec ID                                 : 129
    Duration                                 : 2 h 24 min
    Bit rate mode                            : Constant
    Bit rate                                 : 512 kb/s
    Maximum bit rate                         : 703 kb/s
    Channel(s)                               : 6 channels
    Channel layout                           : L R C LFE Ls Rs
    Sampling rate                            : 48.0 kHz
    Frame rate                               : 31.250 FPS (1536 SPF)
    Bit depth                                : 16 bits
    Compression mode                         : Lossy
    Stream size                              : 529 MiB (6%)
    Language                                 : English
    Service kind                             : Complete Main
    
    Menu
    ID                                       : 480 (0x1E0)
    Menu ID                                  : 1 (0x1)
    Duration                                 : 2 h 24 min
    List                                     : 481 (0x1E1) (AVC) / 482 (0x1E2) (AC-3, English)
    Language                                 :  / English
    Maximum bit rate                         : 9672800
    
    

    Adanga Maru (2018) Tamil - 1080p - WEB-HD - AVC - DD5.1 - ESubs-MTR
    Adanga Maru (2018) Tamil - 1080p - WEB-HD - AVC - DD5.1 - ESubs-MTR
    Adanga Maru (2018) Tamil - 1080p - WEB-HD - AVC - DD5.1 - ESubs-MTR
    Adanga Maru (2018) Tamil - 1080p - WEB-HD - AVC - DD5.1 - ESubs-MTR
    Adanga Maru (2018) Tamil - 1080p - WEB-HD - AVC - DD5.1 - ESubs-MTR
    Adanga Maru (2018) Tamil - 1080p - WEB-HD - AVC - DD5.1 - ESubs-MTR
    Adanga Maru (2018) Tamil - 1080p - WEB-HD - AVC - DD5.1 - ESubs-MTR

    SINGLE DIRECT FAST LINKS

    https://www.heroupload.com/0e01f88e40cecfb4/Adanga.Maru.2018.1080p.HD.AVC.MP4.DD5.1.Esubs.Tamil-MTR.mp4


    1GB LINKS


    
    https://www.heroupload.com/b3900a42bef3a534/Adanga.Maru.2018.1080p.HD.AVC.MP4.DD5.1.Esubs.Tamil-MTR.part01.rar
    https://www.heroupload.com/c2d27c82cae0ba68/Adanga.Maru.2018.1080p.HD.AVC.MP4.DD5.1.Esubs.Tamil-MTR.part02.rar
    https://www.heroupload.com/8245f86f9078fa29/Adanga.Maru.2018.1080p.HD.AVC.MP4.DD5.1.Esubs.Tamil-MTR.part03.rar
    https://www.heroupload.com/f99d3b6baf6a0c15/Adanga.Maru.2018.1080p.HD.AVC.MP4.DD5.1.Esubs.Tamil-MTR.part04.rar
    https://www.heroupload.com/46e587cbf8bc708d/Adanga.Maru.2018.1080p.HD.AVC.MP4.DD5.1.Esubs.Tamil-MTR.part05.rar
    https://www.heroupload.com/dd84cbafac6ab665/Adanga.Maru.2018.1080p.HD.AVC.MP4.DD5.1.Esubs.Tamil-MTR.part06.rar
    https://www.heroupload.com/f53da498999713dd/Adanga.Maru.2018.1080p.HD.AVC.MP4.DD5.1.Esubs.Tamil-MTR.part07.rar
    https://www.heroupload.com/02b21987aa331fd7/Adanga.Maru.2018.1080p.HD.AVC.MP4.DD5.1.Esubs.Tamil-MTR.part08.rar
    https://www.heroupload.com/2a1ad26e9e80235f/Adanga.Maru.2018.1080p.HD.AVC.MP4.DD5.1.Esubs.Tamil-MTR.part09.rar
    https://www.heroupload.com/a729873f5a043e5d/Adanga.Maru.2018.1080p.HD.AVC.MP4.DD5.1.Esubs.Tamil-MTR.part10.rar
    https://www.heroupload.com/4903f952993468c6/Adanga.Maru.2018.1080p.HD.AVC.MP4.DD5.1.Esubs.Tamil-MTR.srt




    Buy Premium From My Links & Support Me

    Comments

    Add Comment!


    Add comment

    Name:*
    E-Mail:
    Comment:
    • winkwinkedsmileam
      belayfeelfellowlaughing
      lollovenorecourse
      requestsadtonguewassat
      cryingwhatbullyangry
    Security Code: *
    reload, if the code cannot be seen