a b c d e f g h i j k l m n o p q r s t u v w x y z 0-9

2 Friends (2018) Telugu - 1080p - WEB-DL - UNTOUCHED - AVC - DD5.1-TMV

  • Views: 701
  • Author: stev
  • Date: 23-01-2019, 23:11
  • Category: Telugu Movies
  • Rating:
    Description of the movie:
    2 Friends (2018) Telugu - 1080p - WEB-DL - UNTOUCHED - AVC - DD5.1-TMV





    Format                                   : Matroska
    Format version                           : Version 4
    File size                                : 6.10 GiB
    Duration                                 : 2 h 8 min
    Overall bit rate                         : 6 811 kb/s
    Encoded date                             : UTC 2019-01-23 17:16:17
    Writing application                      : mkvmerge v29.0.0 ('Like It Or Not') 32-bit
    Writing library                          : libebml v1.3.6 + libmatroska v1.4.9
    
    Video
    ID                                       : 1
    Format                                   : AVC
    Format/Info                              : Advanced Video Codec
    Format profile                           : High@L4
    Format settings                          : CABAC / 4 Ref Frames
    Format settings, CABAC                   : Yes
    Format settings, RefFrames               : 4 frames
    Codec ID                                 : V_MPEG4/ISO/AVC
    Duration                                 : 2 h 8 min
    Bit rate                                 : 6 169 kb/s
    Width                                    : 1 920 pixels
    Height                                   : 816 pixels
    Display aspect ratio                     : 2.35:1
    Frame rate mode                          : Constant
    Frame rate                               : 24.000 FPS
    Color space                              : YUV
    Chroma subsampling                       : 4:2:0
    Bit depth                                : 8 bits
    Scan type                                : Progressive
    Bits/(Pixel*Frame)                       : 0.164
    Stream size                              : 5.53 GiB (91%)
    Language                                 : Telugu
    Default                                  : Yes
    Forced                                   : No
    Color range                              : Limited
    Color primaries                          : BT.709
    Transfer characteristics                 : BT.709
    Matrix coefficients                      : BT.709
    
    Audio
    ID                                       : 2
    Format                                   : E-AC-3
    Format/Info                              : Enhanced AC-3
    Commercial name                          : Dolby Digital Plus
    Codec ID                                 : A_EAC3
    Duration                                 : 2 h 8 min
    Bit rate mode                            : Constant
    Bit rate                                 : 640 kb/s
    Channel(s)                               : 6 channels
    Channel layout                           : L R C LFE Ls Rs
    Sampling rate                            : 48.0 kHz
    Frame rate                               : 31.250 FPS (1536 SPF)
    Compression mode                         : Lossy
    Stream size                              : 587 MiB (9%)
    Language                                 : Telugu
    Service kind                             : Complete Main
    Default                                  : No
    Forced                                   : No
    
    Text
    ID                                       : 3
    Format                                   : UTF-8
    Codec ID                                 : S_TEXT/UTF8
    Codec ID/Info                            : UTF-8 Plain Text
    Duration                                 : 2 h 4 min
    Bit rate                                 : 75 b/s
    Count of elements                        : 1957
    Stream size                              : 69.2 KiB (0%)
    Language                                 : English
    Default                                  : No
    Forced                                   : No
    
    


    2 Friends (2018) Telugu - 1080p - WEB-DL - UNTOUCHED - AVC - DD5.1-TMV

    SINGLE DIRECT FAST LINKS

    https://www.heroupload.com/98ffe012d41821a7/2.Friends.2018.Telugu.WEB-DL.1080p.AVC.UNTOUCHED.DD5.1.ESub-TMV.mkv


    1GB LINKS

    
    https://www.heroupload.com/36e32fb7163bc5cb/2.Friends.2018.Telugu.WEB-DL.1080p.AVC.UNTOUCHED.DD5.1.ESub-TMV.part1.rar
    https://www.heroupload.com/1e42832294bb8346/2.Friends.2018.Telugu.WEB-DL.1080p.AVC.UNTOUCHED.DD5.1.ESub-TMV.part2.rar
    https://www.heroupload.com/db30942b03467f20/2.Friends.2018.Telugu.WEB-DL.1080p.AVC.UNTOUCHED.DD5.1.ESub-TMV.part3.rar
    https://www.heroupload.com/adbb9000c35ebd7d/2.Friends.2018.Telugu.WEB-DL.1080p.AVC.UNTOUCHED.DD5.1.ESub-TMV.part4.rar
    https://www.heroupload.com/63f62c1d5f9d86d6/2.Friends.2018.Telugu.WEB-DL.1080p.AVC.UNTOUCHED.DD5.1.ESub-TMV.part5.rar
    https://www.heroupload.com/42c3eec7013351f0/2.Friends.2018.Telugu.WEB-DL.1080p.AVC.UNTOUCHED.DD5.1.ESub-TMV.part6.rar
    https://www.heroupload.com/2964ee70cd7ac593/2.Friends.2018.Telugu.WEB-DL.1080p.AVC.UNTOUCHED.DD5.1.ESub-TMV.part7.rar


    Buy Premium From My Links & Support Me

    Comments

    Add Comment!


    Add comment

    Name:*
    E-Mail:
    Comment:
    • winkwinkedsmileam
      belayfeelfellowlaughing
      lollovenorecourse
      requestsadtonguewassat
      cryingwhatbullyangry
    Security Code: *
    reload, if the code cannot be seen