a b c d e f g h i j k l m n o p q r s t u v w x y z 0-9

Fraud Saiyaan (2019) 700MB - 1CDRip - pDVDRip - x264 - MP3-CineVooD

  • Views: 29
  • Author: stev
  • Date: 22-01-2019, 01:58
  • Category: Bollywood Latest Movies CAM/pDVD/DVDscr
  • Rating:
    Description of the movie:
    Fraud Saiyaan (2019) 700MB - 1CDRip - pDVDRip - x264 - MP3-CineVooD




    Format                                   : Matroska
    Format version                           : Version 4
    File size                                : 702 MiB
    Duration                                 : 1 h 54 min
    Overall bit rate                         : 854 kb/s
    Encoded date                             : UTC 2019-01-21 21:57:45
    Writing application                      : mkvmerge v29.0.0 ('Like It Or Not') 32-bit
    Writing library                          : libebml v1.3.6 + libmatroska v1.4.9
    
    Video
    ID                                       : 1
    Format                                   : AVC
    Format/Info                              : Advanced Video Codec
    Format profile                           : Main@L4
    Format settings                          : CABAC / 4 Ref Frames
    Format settings, CABAC                   : Yes
    Format settings, RefFrames               : 4 frames
    Codec ID                                 : V_MPEG4/ISO/AVC
    Duration                                 : 1 h 54 min
    Bit rate                                 : 690 kb/s
    Width                                    : 688 pixels
    Height                                   : 300 pixels
    Display aspect ratio                     : 2.25:1
    Frame rate mode                          : Constant
    Frame rate                               : 30.000 FPS
    Color space                              : YUV
    Chroma subsampling                       : 4:2:0
    Bit depth                                : 8 bits
    Scan type                                : Progressive
    Bits/(Pixel*Frame)                       : 0.111
    Stream size                              : 568 MiB (81%)
    Writing library                          : x264 core 148 r2708 86b7198
    Encoding settings                        : cabac=1 / ref=1 / deblock=1:0:0 / analyse=0x1:0x111 / me=hex / subme=2 / psy=1 / psy_rd=1.00:0.00 / mixed_ref=0 / me_range=16 / chroma_me=1 / trellis=0 / 8x8dct=0 / cqm=0 / deadzone=21,11 / fast_pskip=1 / chroma_qp_offset=0 / threads=9 / lookahead_threads=2 / sliced_threads=0 / nr=0 / decimate=1 / interlaced=0 / bluray_compat=0 / constrained_intra=0 / bframes=3 / b_pyramid=2 / b_adapt=1 / b_bias=0 / direct=1 / weightb=1 / open_gop=0 / weightp=1 / keyint=300 / keyint_min=30 / scenecut=40 / intra_refresh=0 / rc_lookahead=10 / rc=abr / mbtree=1 / bitrate=690 / ratetol=1.0 / qcomp=0.60 / qpmin=0 / qpmax=69 / qpstep=4 / vbv_maxrate=20000 / vbv_bufsize=25000 / nal_hrd=none / filler=0 / ip_ratio=1.40 / aq=1:1.00
    Default                                  : Yes
    Forced                                   : No
    Color range                              : Limited
    Color primaries                          : BT.709
    Transfer characteristics                 : BT.709
    Matrix coefficients                      : BT.709
    
    Audio
    ID                                       : 2
    Format                                   : AAC LC
    Format/Info                              : Advanced Audio Codec Low Complexity
    Codec ID                                 : A_AAC-2
    Duration                                 : 1 h 54 min
    Bit rate                                 : 160 kb/s
    Channel(s)                               : 2 channels
    Channel layout                           : L R
    Sampling rate                            : 48.0 kHz
    Frame rate                               : 46.875 FPS (1024 SPF)
    Compression mode                         : Lossy
    Delay relative to video                  : -21 ms
    Stream size                              : 132 MiB (19%)
    Language                                 : English
    Default                                  : Yes
    Forced                                   : No
    
    



    Fraud Saiyaan (2019) 700MB - 1CDRip - pDVDRip - x264 - MP3-CineVooDFraud Saiyaan (2019) 700MB - 1CDRip - pDVDRip - x264 - MP3-CineVooDFraud Saiyaan (2019) 700MB - 1CDRip - pDVDRip - x264 - MP3-CineVooDFraud Saiyaan (2019) 700MB - 1CDRip - pDVDRip - x264 - MP3-CineVooDFraud Saiyaan (2019) 700MB - 1CDRip - pDVDRip - x264 - MP3-CineVooDFraud Saiyaan (2019) 700MB - 1CDRip - pDVDRip - x264 - MP3-CineVooD


    SINGLE DIRECT FAST LINKS


    https://www.heroupload.com/4d0fcd3366265190/Fraud.Saiyaan.2019.Hindi.700MB.x264.1CD.MP3-CineVooD.mkv






    Buy Premium From My Links & Support Me

    Comments

    Add Comment!


    Add comment

    Name:*
    E-Mail:
    Comment:
    • winkwinkedsmileam
      belayfeelfellowlaughing
      lollovenorecourse
      requestsadtonguewassat
      cryingwhatbullyangry
    Security Code: *
    reload, if the code cannot be seen