a b c d e f g h i j k l m n o p q r s t u v w x y z 0-9

Game of Thrones S03E07 BluRay 1080p x264 ESub [Dual-Audio][Hindi+English] - KMHD

  • Views: 7
  • Author: stev
  • Date: 14-01-2019, 00:11
  • Category: English Movies Dubbed in Hindi
  • Rating:
    Description of the movie:
    Game of Thrones S03E07 BluRay 1080p x264 ESub [Dual-Audio][Hindi+English] - KMHD





    Format                                   : Matroska
    Format version                           : Version 4
    File size                                : 743 MiB
    Duration                                 : 57 min 37 s
    Overall bit rate                         : 1 802 kb/s
    Encoded date                             : UTC 2019-01-13 19:11:04
    Writing application                      : mkvmerge v29.0.0 ('Like It Or Not') 32-bit
    Writing library                          : libebml v1.3.6 + libmatroska v1.4.9
    
    Video
    ID                                       : 1
    Format                                   : AVC
    Format/Info                              : Advanced Video Codec
    Format profile                           : High@L4.1
    Format settings                          : CABAC / 4 Ref Frames
    Format settings, CABAC                   : Yes
    Format settings, RefFrames               : 4 frames
    Codec ID                                 : V_MPEG4/ISO/AVC
    Duration                                 : 57 min 37 s
    Bit rate                                 : 1 544 kb/s
    Width                                    : 1 920 pixels
    Height                                   : 1 080 pixels
    Display aspect ratio                     : 16:9
    Frame rate mode                          : Constant
    Frame rate                               : 23.976 (24000/1001) FPS
    Color space                              : YUV
    Chroma subsampling                       : 4:2:0
    Bit depth                                : 8 bits
    Scan type                                : Progressive
    Bits/(Pixel*Frame)                       : 0.031
    Stream size                              : 636 MiB (86%)
    Writing library                          : x264 core 130 r2273 b3065e6
    Encoding settings                        : cabac=1 / ref=4 / deblock=1:0:0 / analyse=0x3:0x133 / me=umh / subme=9 / psy=1 / psy_rd=1.00:0.00 / mixed_ref=1 / me_range=16 / chroma_me=1 / trellis=2 / 8x8dct=1 / cqm=0 / deadzone=21,11 / fast_pskip=1 / chroma_qp_offset=-2 / threads=12 / lookahead_threads=1 / sliced_threads=0 / nr=0 / decimate=1 / interlaced=0 / bluray_compat=0 / constrained_intra=0 / bframes=3 / b_pyramid=2 / b_adapt=2 / b_bias=0 / direct=3 / weightb=1 / open_gop=0 / weightp=2 / keyint=240 / keyint_min=24 / scenecut=40 / intra_refresh=0 / rc_lookahead=60 / rc=2pass / mbtree=1 / bitrate=1544 / ratetol=1.0 / qcomp=0.60 / qpmin=0 / qpmax=69 / qpstep=4 / cplxblur=20.0 / qblur=0.5 / vbv_maxrate=62500 / vbv_bufsize=78125 / nal_hrd=none / ip_ratio=1.40 / aq=1:1.00
    Language                                 : English
    Default                                  : Yes
    Forced                                   : No
    Color range                              : Limited
    Color primaries                          : BT.709
    Transfer characteristics                 : BT.709
    Matrix coefficients                      : BT.709
    
    Audio
    ID                                       : 2
    Format                                   : AAC LC
    Format/Info                              : Advanced Audio Codec Low Complexity
    Codec ID                                 : A_AAC-2
    Duration                                 : 57 min 37 s
    Bit rate                                 : 256 kb/s
    Channel(s)                               : 6 channels
    Channel layout                           : C L R Ls Rs LFE
    Sampling rate                            : 48.0 kHz
    Frame rate                               : 46.875 FPS (1024 SPF)
    Compression mode                         : Lossy
    Stream size                              : 105 MiB (14%)
    Language                                 : English
    Default                                  : No
    Forced                                   : No
    
    Text
    ID                                       : 3
    Format                                   : UTF-8
    Codec ID                                 : S_TEXT/UTF8
    Codec ID/Info                            : UTF-8 Plain Text
    Duration                                 : 55 min 16 s
    Bit rate                                 : 61 b/s
    Count of elements                        : 787
    Stream size                              : 24.9 KiB (0%)
    Language                                 : English
    Default                                  : Yes
    Forced                                   : No
    
    Menu
    00:00:00.000                             : Chapter 1
    00:01:53.989                             : Chapter 2
    00:09:29.194                             : Chapter 3
    00:19:22.286                             : Chapter 4
    00:28:09.772                             : Chapter 5
    00:35:01.349                             : Chapter 6
    00:44:22.410                             : Chapter 7
    00:56:17.916                             : Chapter 8
    
    



    Game of Thrones S03E07 BluRay 1080p x264 ESub [Dual-Audio][Hindi+English] - KMHDGame of Thrones S03E07 BluRay 1080p x264 ESub [Dual-Audio][Hindi+English] - KMHDGame of Thrones S03E07 BluRay 1080p x264 ESub [Dual-Audio][Hindi+English] - KMHDGame of Thrones S03E07 BluRay 1080p x264 ESub [Dual-Audio][Hindi+English] - KMHD


    SINGLE DIRECT FAST LINKS


    https://www.heroupload.com/879285a9f347d51b/Game.Of.Thrones.S03E07.1080p.Hindi-Eng.BluRay-KMHD.mkv




    Buy Premium From My Links & Support Me

    Comments

    Add Comment!


    Add comment

    Name:*
    E-Mail:
    Comment:
    • winkwinkedsmileam
      belayfeelfellowlaughing
      lollovenorecourse
      requestsadtonguewassat
      cryingwhatbullyangry
    Security Code: *
    reload, if the code cannot be seen