a b c d e f g h i j k l m n o p q r s t u v w x y z 0-9

Juvva (2018) 720p HDTV-Rip x264 [Dual Audio][Telugu-Line+Hindi-Org]

  • Views: 6
  • Author: stev
  • Date: 14-01-2019, 00:05
  • Category: South Indian Hindi Dub Movies
  • Rating:
    Description of the movie:
    Juvva (2018) 720p HDTV-Rip x264 [Dual Audio][Telugu-Line+Hindi-Org]





    Format                                   : Matroska
    Format version                           : Version 4
    File size                                : 1.36 GiB
    Duration                                 : 2 h 10 min
    Overall bit rate mode                    : Variable
    Overall bit rate                         : 1 494 kb/s
    Encoded date                             : UTC 2019-01-13 19:40:17
    Writing application                      : mkvmerge v29.0.0 ('Like It Or Not') 32-bit
    Writing library                          : libebml v1.3.6 + libmatroska v1.4.9
    
    Video
    ID                                       : 1
    Format                                   : AVC
    Format/Info                              : Advanced Video Codec
    Format profile                           : High@L3.1
    Format settings                          : CABAC / 4 Ref Frames
    Format settings, CABAC                   : Yes
    Format settings, RefFrames               : 4 frames
    Codec ID                                 : V_MPEG4/ISO/AVC
    Duration                                 : 2 h 10 min
    Bit rate                                 : 1 296 kb/s
    Width                                    : 1 280 pixels
    Height                                   : 544 pixels
    Display aspect ratio                     : 2.35:1
    Frame rate mode                          : Constant
    Frame rate                               : 25.000 FPS
    Color space                              : YUV
    Chroma subsampling                       : 4:2:0
    Bit depth                                : 8 bits
    Scan type                                : Progressive
    Bits/(Pixel*Frame)                       : 0.074
    Stream size                              : 1.19 GiB (88%)
    Writing library                          : x264 core 155 r2901 7d0ff22
    Encoding settings                        : cabac=1 / ref=3 / deblock=1:0:0 / analyse=0x3:0x113 / me=hex / subme=7 / psy=1 / psy_rd=1.00:0.00 / mixed_ref=1 / me_range=16 / chroma_me=1 / trellis=1 / 8x8dct=1 / cqm=0 / deadzone=21,11 / fast_pskip=1 / chroma_qp_offset=-2 / threads=17 / lookahead_threads=2 / sliced_threads=0 / nr=0 / decimate=1 / interlaced=0 / bluray_compat=0 / constrained_intra=0 / bframes=3 / b_pyramid=2 / b_adapt=1 / b_bias=0 / direct=1 / weightb=1 / open_gop=0 / weightp=2 / keyint=250 / keyint_min=25 / scenecut=40 / intra_refresh=0 / rc_lookahead=40 / rc=abr / mbtree=1 / bitrate=1296 / ratetol=1.0 / qcomp=0.60 / qpmin=0 / qpmax=69 / qpstep=4 / ip_ratio=1.40 / aq=1:1.00
    Language                                 : Telugu
    Default                                  : Yes
    Forced                                   : No
    
    Audio #1
    ID                                       : 2
    Format                                   : MPEG Audio
    Format version                           : Version 1
    Format profile                           : Layer 3
    Format settings                          : Joint stereo / MS Stereo
    Codec ID                                 : A_MPEG/L3
    Codec ID/Hint                            : MP3
    Duration                                 : 2 h 10 min
    Bit rate mode                            : Variable
    Bit rate                                 : 96.0 kb/s
    Channel(s)                               : 2 channels
    Sampling rate                            : 48.0 kHz
    Frame rate                               : 41.667 FPS (1152 SPF)
    Compression mode                         : Lossy
    Stream size                              : 93.3 MiB (7%)
    Writing library                          : LAME3.99r
    Encoding settings                        : -m j -V 4 -q 3 -lowpass 15.1 --abr 96
    Language                                 : Telugu
    Default                                  : Yes
    Forced                                   : No
    
    Audio #2
    ID                                       : 3
    Format                                   : MPEG Audio
    Format version                           : Version 1
    Format profile                           : Layer 3
    Format settings                          : Joint stereo / MS Stereo
    Codec ID                                 : A_MPEG/L3
    Codec ID/Hint                            : MP3
    Duration                                 : 2 h 10 min
    Bit rate mode                            : Variable
    Bit rate                                 : 82.2 kb/s
    Nominal bit rate                         : 96.0 kb/s
    Channel(s)                               : 2 channels
    Sampling rate                            : 48.0 kHz
    Frame rate                               : 41.667 FPS (1152 SPF)
    Compression mode                         : Lossy
    Stream size                              : 76.8 MiB (6%)
    Writing library                          : LAME3.99r
    Encoding settings                        : -m j -V 4 -q 3 -lowpass 15.1 --abr 96
    Language                                 : Hindi
    Default                                  : No
    Forced                                   : No
    
    



    Juvva (2018) 720p HDTV-Rip x264 [Dual Audio][Telugu-Line+Hindi-Org]Juvva (2018) 720p HDTV-Rip x264 [Dual Audio][Telugu-Line+Hindi-Org]Juvva (2018) 720p HDTV-Rip x264 [Dual Audio][Telugu-Line+Hindi-Org]Juvva (2018) 720p HDTV-Rip x264 [Dual Audio][Telugu-Line+Hindi-Org]Juvva (2018) 720p HDTV-Rip x264 [Dual Audio][Telugu-Line+Hindi-Org]

    SINGLE DIRECT FAST LINKS

    https://www.heroupload.com/6a4f2f76a99c8f8d/Juvva.2018.HDTV-Rip.720p.Telugu.Line+Hindi-Exclusive.mkv




    Buy Premium From My Links & Support Me

    Comments

    Add Comment!


    Add comment

    Name:*
    E-Mail:
    Comment:
    • winkwinkedsmileam
      belayfeelfellowlaughing
      lollovenorecourse
      requestsadtonguewassat
      cryingwhatbullyangry
    Security Code: *
    reload, if the code cannot be seen