a b c d e f g h i j k l m n o p q r s t u v w x y z 0-9

Thugs of Hindostan (2018) Hindi - WEB-DL - 720p - AVC - DDP5.1 - Msub [DDR-Exclusive]

  • Views: 17
  • Author: stev
  • Date: 4-01-2019, 00:56
  • Category: Bollywood BluRay - Full HD
  • Rating:
    Description of the movie:
    Thugs of Hindostan (2018) Hindi - WEB-DL - 720p - AVC - DDP5.1 - Msub [DDR-Exclusive]





    Format                                   : Matroska
    Format version                           : Version 4
    File size                                : 3.65 GiB
    Duration                                 : 2 h 44 min
    Overall bit rate                         : 3 185 kb/s
    Encoded date                             : UTC 2019-01-03 20:01:02
    Writing application                      : mkvmerge v29.0.0 ('Like It Or Not') 32-bit
    Writing library                          : libebml v1.3.6 + libmatroska v1.4.9
    
    Video
    ID                                       : 1
    Format                                   : AVC
    Format/Info                              : Advanced Video Codec
    Format profile                           : High@L3.1
    Format settings                          : CABAC / 5 Ref Frames
    Format settings, CABAC                   : Yes
    Format settings, RefFrames               : 5 frames
    Codec ID                                 : V_MPEG4/ISO/AVC
    Duration                                 : 2 h 44 min
    Bit rate                                 : 2 542 kb/s
    Width                                    : 1 280 pixels
    Height                                   : 528 pixels
    Display aspect ratio                     : 2.40:1
    Original display aspect ratio            : 2.40:1
    Frame rate mode                          : Constant
    Frame rate                               : 24.000 FPS
    Color space                              : YUV
    Chroma subsampling                       : 4:2:0
    Bit depth                                : 8 bits
    Scan type                                : Progressive
    Bits/(Pixel*Frame)                       : 0.157
    Stream size                              : 2.91 GiB (80%)
    Language                                 : Hindi
    Default                                  : Yes
    Forced                                   : No
    Color range                              : Limited
    Color primaries                          : BT.709
    Transfer characteristics                 : BT.709
    Matrix coefficients                      : BT.709
    
    Audio
    ID                                       : 2
    Format                                   : E-AC-3
    Format/Info                              : Enhanced AC-3
    Commercial name                          : Dolby Digital Plus
    Codec ID                                 : A_EAC3
    Duration                                 : 2 h 44 min
    Bit rate mode                            : Constant
    Bit rate                                 : 640 kb/s
    Channel(s)                               : 6 channels
    Channel layout                           : L R C LFE Ls Rs
    Sampling rate                            : 48.0 kHz
    Frame rate                               : 31.250 FPS (1536 SPF)
    Compression mode                         : Lossy
    Stream size                              : 751 MiB (20%)
    Language                                 : Hindi
    Service kind                             : Complete Main
    Default                                  : No
    Forced                                   : No
    
    Text #1
    ID                                       : 3
    Format                                   : UTF-8
    Codec ID                                 : S_TEXT/UTF8
    Codec ID/Info                            : UTF-8 Plain Text
    Duration                                 : 2 h 36 min
    Bit rate                                 : 34 b/s
    Count of elements                        : 1277
    Stream size                              : 39.1 KiB (0%)
    Language                                 : English
    Default                                  : No
    Forced                                   : No
    
    Text #2
    ID                                       : 4
    Format                                   : UTF-8
    Codec ID                                 : S_TEXT/UTF8
    Codec ID/Info                            : UTF-8 Plain Text
    Duration                                 : 2 h 36 min
    Bit rate                                 : 38 b/s
    Count of elements                        : 1285
    Stream size                              : 44.2 KiB (0%)
    Language                                 : Spanish
    Default                                  : No
    Forced                                   : No
    
    Text #3
    ID                                       : 5
    Format                                   : UTF-8
    Codec ID                                 : S_TEXT/UTF8
    Codec ID/Info                            : UTF-8 Plain Text
    Duration                                 : 2 h 36 min
    Bit rate                                 : 37 b/s
    Count of elements                        : 1285
    Stream size                              : 43.7 KiB (0%)
    Language                                 : French
    Default                                  : No
    Forced                                   : No
    
    Text #4
    ID                                       : 6
    Format                                   : UTF-8
    Codec ID                                 : S_TEXT/UTF8
    Codec ID/Info                            : UTF-8 Plain Text
    Duration                                 : 2 h 36 min
    Bit rate                                 : 52 b/s
    Count of elements                        : 1285
    Stream size                              : 60.1 KiB (0%)
    Language                                 : Arabic
    Default                                  : No
    Forced                                   : No
    
    Menu
    00:00:00.000                             : en:Studio Logos
    00:00:38.000                             : en:Scene 2
    00:15:30.000                             : en:Title Sequence
    00:16:05.000                             : en:Scene 4
    00:30:53.000                             : en:Scene 5
    00:47:17.000                             : en:Scene 6
    00:56:25.000                             : en:Scene 7
    01:06:06.000                             : en:Scene 8
    01:16:39.000                             : en:Scene 9
    01:30:25.000                             : en:Scene 10
    01:45:58.000                             : en:Scene 11
    01:54:36.000                             : en:Scene 12
    02:11:41.000                             : en:Scene 13
    02:19:41.000                             : en:Scene 14
    02:37:42.000                             : en:End Credits
    
    

    Thugs of Hindostan (2018) Hindi - WEB-DL - 720p - AVC - DDP5.1 - Msub [DDR-Exclusive]Thugs of Hindostan (2018) Hindi - WEB-DL - 720p - AVC - DDP5.1 - Msub [DDR-Exclusive]Thugs of Hindostan (2018) Hindi - WEB-DL - 720p - AVC - DDP5.1 - Msub [DDR-Exclusive]Thugs of Hindostan (2018) Hindi - WEB-DL - 720p - AVC - DDP5.1 - Msub [DDR-Exclusive]



    SINGLE DIRECT FAST LINKS

    https://www.heroupload.com/88bace16f490b698/Thugs.of.Hindostan.2018.Hindi.WEB-DL.720p.UNTOUCHED.AVC.DD5.1.MSub-DDR.mkv


    1GB LINKS

    
    https://www.heroupload.com/d11118d6b8399dc8/Thugs.of.Hindostan.2018.Hindi.WEB-DL.720p.UNTOUCHED.AVC.DD5.1.MSub-DDR.part1.rar
    https://www.heroupload.com/1f1ec90672232258/Thugs.of.Hindostan.2018.Hindi.WEB-DL.720p.UNTOUCHED.AVC.DD5.1.MSub-DDR.part2.rar
    https://www.heroupload.com/fa2afcab93182248/Thugs.of.Hindostan.2018.Hindi.WEB-DL.720p.UNTOUCHED.AVC.DD5.1.MSub-DDR.part3.rar
    https://www.heroupload.com/b4e5a45b8d10f635/Thugs.of.Hindostan.2018.Hindi.WEB-DL.720p.UNTOUCHED.AVC.DD5.1.MSub-DDR.part4.rar


    Buy Premium From My Links & Support Me

    Comments

    Add Comment!


    Add comment

    Name:*
    E-Mail:
    Comment:
    • winkwinkedsmileam
      belayfeelfellowlaughing
      lollovenorecourse
      requestsadtonguewassat
      cryingwhatbullyangry
    Security Code: *
    reload, if the code cannot be seen