a b c d e f g h i j k l m n o p q r s t u v w x y z 0-9

Andhadhun (2018) 720p - HDRip - x264 - AAC-BollywoodA2z

  • Views: 27
  • Author: stev
  • Date: 24-12-2018, 18:04
  • Category: A / 2018 / Bollywood BluRay - Full HD
  • Rating:
    Description of the movie:
    Andhadhun (2018) 720p - HDRip - x264 - AAC-BollywoodA2z



    General
    Format : Matroska
    Format version : Version 4 / Version 2
    File size : 1.16 GiB
    Duration : 2 h 17 min
    Overall bit rate : 1 208 kb/s
    
    Video
    ID : 1
    Format : AVC
    Format/Info : Advanced Video Codec
    Format profile : High@L4.1
    Format settings : CABAC / 5 Ref Frames
    Format settings, CABAC : Yes
    Format settings, RefFrames : 5 frames
    Codec ID : V_MPEG4/ISO/AVC
    Duration : 2 h 17 min
    Bit rate : 1 100 kb/s
    Width : 1 280 pixels
    Height : 572 pixels
    Display aspect ratio : 2.25:1
    Frame rate mode : Constant
    Frame rate : 24.000 FPS
    Color space : YUV
    Chroma subsampling : 4:2:0
    Bit depth : 8 bits
    Scan type : Progressive
    Bits/(Pixel*Frame) : 0.063
    Stream size : 1.03 GiB (89%)
    Writing library : x264 core 155 r2901 7d0ff22
    Default : Yes
    Forced : No
    
    Audio
    ID : 2
    Format : AAC
    Format/Info : Advanced Audio Codec
    Format profile : LC
    Codec ID : A_AAC-2
    Duration : 2 h 17 min
    Bit rate : 128 kb/s
    Channel(s) : 2 channels
    Channel positions : Front: L R
    Sampling rate : 48.0 kHz
    Frame rate : 46.875 FPS (1024 SPF)
    Compression mode : Lossy
    Stream size : 126 MiB (11%)
    Default : Yes
    Forced : No
    
    Text
    ID : 3
    Format : UTF-8
    Codec ID : S_TEXT/UTF8
    Codec ID/Info : UTF-8 Plain Text
    Duration : 2 h 6 min
    Bit rate : 46 b/s
    Count of elements : 1163
    Stream size : 43.6 KiB (0%)
    Language : English
    Default : Yes
    Forced : Yes
    
    


    Andhadhun (2018) 720p - HDRip - x264 - AAC-BollywoodA2zAndhadhun (2018) 720p - HDRip - x264 - AAC-BollywoodA2zAndhadhun (2018) 720p - HDRip - x264 - AAC-BollywoodA2zAndhadhun (2018) 720p - HDRip - x264 - AAC-BollywoodA2zAndhadhun (2018) 720p - HDRip - x264 - AAC-BollywoodA2zAndhadhun (2018) 720p - HDRip - x264 - AAC-BollywoodA2z

    SINGLE DIRECT FAST LINKS


    
    https://www.heroupload.us/b389eeccf9c12f7a/Andhadhun.2018.Hindi.720p.HDRip.x264-BollywoodA2z.mkv






    Buy Premium From My Links & Support Me

    Comments

    Add Comment!


    Add comment

    Name:*
    E-Mail:
    Comment:
    • winkwinkedsmileam
      belayfeelfellowlaughing
      lollovenorecourse
      requestsadtonguewassat
      cryingwhatbullyangry
    Security Code: *
    reload, if the code cannot be seen