a b c d e f g h i j k l m n o p q r s t u v w x y z 0-9

Zero (2018) 1080p - HD-CAMRip - x264 - AAC-AF Exclusive

  • Views: 101
  • Author: stev
  • Date: 21-12-2018, 17:58
  • Category: Bollywood Latest Movies CAM/pDVD/DVDscr
  • Rating:
    Description of the movie:
    Zero (2018) 1080p - HD-CAMRip - x264 - AAC-AF Exclusive





    Format                      : Matroska
    Format version              : Version 4 / Version 2
    File size                   : 2.24 GiB
    Duration                    : 2 h 30 min
    Overall bit rate            : 2 136 kb/s
    Encoded date                : UTC 2018-12-21 14:41:48
    Writing application         : mkvmerge v29.0.0 ('Like It Or Not') 32-bit
    Writing library             : libebml v1.3.6 + libmatroska v1.4.9
    
    Video
    ID                          : 1
    Format                      : AVC
    Format/Info                 : Advanced Video Codec
    Format profile              : High@L3.2
    Format settings, CABAC      : Yes
    Format settings, RefFrames  : 2 frames
    Codec ID                    : V_MPEG4/ISO/AVC
    Duration                    : 2 h 30 min
    Bit rate                    : 2 014 kb/s
    Width                       : 1 980 pixels
    Height                      : 816 pixels
    Display aspect ratio        : 2.40:1
    Frame rate mode             : Constant
    Frame rate                  : 25.000 FPS
    Color space                 : YUV
    Chroma subsampling          : 4:2:0
    Bit depth                   : 8 bits
    Scan type                   : Progressive
    Bits/(Pixel*Frame)          : 0.050
    Stream size                 : 2.10 GiB (94%)
    Writing library             : x264 core 155 r2901 7d0ff22
    Encoding settings           : cabac=1 / ref=2 / deblock=1:0:0 / analyse=0x3:0x113 / me=hex / subme=6 / psy=1 / psy_rd=1.00:0.00 / mixed_ref=1 / me_range=16 / chroma_me=1 / trellis=1 / 8x8dct=1 / cqm=0 / deadzone=21,11 / fast_pskip=1 / chroma_qp_offset=-2 / threads=12 / lookahead_threads=2 / sliced_threads=0 / nr=0 / decimate=1 / interlaced=0 / bluray_compat=0 / constrained_intra=0 / bframes=3 / b_pyramid=0 / b_adapt=1 / b_bias=0 / direct=1 / weightb=1 / open_gop=0 / weightp=1 / keyint=250 / keyint_min=25 / scenecut=40 / intra_refresh=0 / rc_lookahead=30 / rc=abr / mbtree=1 / bitrate=2014 / ratetol=1.0 / qcomp=0.60 / qpmin=0 / qpmax=69 / qpstep=4 / vbv_maxrate=25000 / vbv_bufsize=25000 / nal_hrd=none / filler=0 / ip_ratio=1.40 / aq=1:1.00
    Language                    : Hindi
    Default                     : Yes
    Forced                      : No
    Color range                 : Limited
    Color primaries             : BT.709
    Transfer characteristics    : BT.709
    Matrix coefficients         : BT.709
    
    Audio
    ID                          : 2
    Format                      : AAC
    Format/Info                 : Advanced Audio Codec
    Format profile              : LC
    Codec ID                    : A_AAC
    Duration                    : 2 h 30 min
    Bit rate                    : 128 kb/s
    Channel(s)                  : 2 channels
    Channel positions           : Front: L R
    Sampling rate               : 44.1 kHz
    Frame rate                  : 43.066 FPS (1024 SPF)
    Compression mode            : Lossy
    Delay relative to video     : -80 ms
    Stream size                 : 138 MiB (6%)
    Language                    : Hindi
    Default                     : Yes
    Forced                      : No
    
    


    Zero (2018) 1080p - HD-CAMRip - x264 - AAC-AF ExclusiveZero (2018) 1080p - HD-CAMRip - x264 - AAC-AF ExclusiveZero (2018) 1080p - HD-CAMRip - x264 - AAC-AF ExclusiveZero (2018) 1080p - HD-CAMRip - x264 - AAC-AF Exclusive


    SINGLE DIRECT FAST LINKS

    https://www.heroupload.us/0d28912bd52a8e19/ZERO.2018.Hindi.HD-CAMRip.1080p.x264.AAC-Exclusive.mkv


    700MB LINKS

    
    https://www.heroupload.us/0d11223f3339ee17/ZERO.2018.Hindi.HD-CAMRip.1080p.x264.AAC-Exclusive.part1.rar
    https://www.heroupload.us/53813d73cb917df4/ZERO.2018.Hindi.HD-CAMRip.1080p.x264.AAC-Exclusive.part2.rar
    https://www.heroupload.us/fe237c95349899eb/ZERO.2018.Hindi.HD-CAMRip.1080p.x264.AAC-Exclusive.part3.rar
    https://www.heroupload.us/f966ee00833f095c/ZERO.2018.Hindi.HD-CAMRip.1080p.x264.AAC-Exclusive.part4.rar



    Buy Premium From My Links & Support Me

    Comments

    Add Comment!


    Add comment

    Name:*
    E-Mail:
    Comment:
    • winkwinkedsmileam
      belayfeelfellowlaughing
      lollovenorecourse
      requestsadtonguewassat
      cryingwhatbullyangry
    Security Code: *
    reload, if the code cannot be seen