a b c d e f g h i j k l m n o p q r s t u v w x y z 0-9

Happy Phirr Bhag Jayegi (2018) 720p - DVDRip - x264 - AAC 5.1 - Esubs-BollywoodA2z

  • Views: 72
  • Author: stev
  • Date: 15-12-2018, 00:30
  • Category: H / 2018 / Bollywood DVDRips - HDRips
  • Rating:
    Description of the movie:
    Happy Phirr Bhag Jayegi (2018) 720p - DVDRip - x264 - AAC 5.1 - Esubs-BollywoodA2z



    Format                                  : Matroska
    Format version                          : Version 4 / Version 2
    File size                                : 1.45 GiB
    Duration                                : 2 h 16 min
    Overall bit rate                        : 1 524 kb/s
    
    Video
    ID                                      : 1
    Format                                  : AVC
    Format/Info                              : Advanced Video Codec
    Duration                                : 2 h 16 min
    Bit rate                                : 1 330 kb/s
    Width                                    : 1 280 pixels
    Height                                  : 544 pixels
    Display aspect ratio                    : 2.35:1
    Frame rate mode                          : Constant
    Frame rate                              : 23.976 (24000/1001) FPS
    Color space                              : YUV
    Chroma subsampling                      : 4:2:0
    Bit depth                                : 8 bits
    Scan type                                : Progressive
    Bits/(Pixel*Frame)                      : 0.080
    Stream size                              : 1.26 GiB (87%)
    
    Audio
    ID                                      : 2
    Format                                  : AAC
    Format/Info                              : Advanced Audio Codec
    Format profile                          : LC
    Codec ID                                : A_AAC-2
    Duration                                : 2 h 16 min
    Bit rate                                : 192 kb/s
    Channel(s)                              : 6 channels
    Channel positions                        : Front: L C R, Side: L R, LFE
    Sampling rate                            : 48.0 kHz
    Frame rate                              : 46.875 FPS (1024 SPF)
    Compression mode                        : Lossy
    Delay relative to video                  : 9 ms
    Stream size                              : 187 MiB (13%)
    Language                                : hit
    Default                                  : Yes
    Forced                                  : Yes
    
    Text
    ID                                      : 3
    Format                                  : UTF-8
    Codec ID                                : S_TEXT/UTF8
    Codec ID/Info                            : UTF-8 Plain Text
    Duration                                : 2 h 12 min
    Bit rate                                : 75 b/s
    Count of elements                        : 2788
    Stream size                              : 73.7 KiB (0%)
    Language                                : English
    Default                                  : Yes
    Forced                                  : Yes


    Happy Phirr Bhag Jayegi (2018) 720p - DVDRip - x264 - AAC 5.1 - Esubs-BollywoodA2zHappy Phirr Bhag Jayegi (2018) 720p - DVDRip - x264 - AAC 5.1 - Esubs-BollywoodA2zHappy Phirr Bhag Jayegi (2018) 720p - DVDRip - x264 - AAC 5.1 - Esubs-BollywoodA2zHappy Phirr Bhag Jayegi (2018) 720p - DVDRip - x264 - AAC 5.1 - Esubs-BollywoodA2zHappy Phirr Bhag Jayegi (2018) 720p - DVDRip - x264 - AAC 5.1 - Esubs-BollywoodA2zHappy Phirr Bhag Jayegi (2018) 720p - DVDRip - x264 - AAC 5.1 - Esubs-BollywoodA2zHappy Phirr Bhag Jayegi (2018) 720p - DVDRip - x264 - AAC 5.1 - Esubs-BollywoodA2z

    SINGLE DIRECT FAST LINKS

    
    https://www.heroupload.us/bc342cbf6f4acbb3/Happy.Phirr.Bhag.Jayegi.2018.720p.DVDRip.x264.AAC.5.1.ESUB-BollywoodA2z.mkv




    Buy Premium From My Links & Support Me

    Comments

    Add Comment!


    Add comment

    Name:*
    E-Mail:
    Comment:
    • winkwinkedsmileam
      belayfeelfellowlaughing
      lollovenorecourse
      requestsadtonguewassat
      cryingwhatbullyangry
    Security Code: *
    reload, if the code cannot be seen