a b c d e f g h i j k l m n o p q r s t u v w x y z 0-9

Mr. Natwarlal (1979) 480p - HD-DVDRip - AVC - AAC-Bollywooda2z

  • Views: 5
  • Author: stev
  • Date: 7-11-2018, 15:35
  • Category: M / 1979 / Bollywood DVDRips - HDRips
  • Rating:
    Description of the movie:
    Mr. Natwarlal (1979) 480p - HD-DVDRip - AVC - AAC-Bollywooda2z



    Format                      : MPEG-4
    Format profile              : Base Media
    Codec ID                    : isom (isom/iso2/avc1/mp41)
    File size                   : 646 MiB
    Duration                    : 2 h 37 min
    Overall bit rate            : 572 kb/s
    Writing application         : Lavf58.9.100
    
    Video
    ID                          : 1
    Format                      : AVC
    Format/Info                 : Advanced Video Codec
    Format profile              : Main@L3
    Format settings, CABAC      : Yes
    Format settings, RefFrames  : 3 frames
    Codec ID                    : avc1
    Codec ID/Info               : Advanced Video Coding
    Duration                    : 2 h 37 min
    Bit rate                    : 439 kb/s
    Width                       : 640 pixels
    Height                      : 480 pixels
    Display aspect ratio        : 4:3
    Frame rate mode             : Constant
    Frame rate                  : 29.970 (30000/1001) FPS
    Color space                 : YUV
    Chroma subsampling          : 4:2:0
    Bit depth                   : 8 bits
    Scan type                   : Progressive
    Bits/(Pixel*Frame)          : 0.048
    Stream size                 : 495 MiB (77%)
    Color range                 : Limited
    Transfer characteristics    : BT.601
    Matrix coefficients         : BT.601
    
    Audio
    ID                          : 2
    Format                      : AAC
    Format/Info                 : Advanced Audio Codec
    Format profile              : LC
    Codec ID                    : 40
    Duration                    : 2 h 37 min
    Bit rate mode               : Constant
    Bit rate                    : 126 kb/s
    Channel(s)                  : 2 channels
    Channel positions           : Front: L R
    Sampling rate               : 44.1 kHz
    Frame rate                  : 43.066 FPS (1024 SPF)
    Compression mode            : Lossy
    Stream size                 : 142 MiB (22%)
    Language                    : English
    Default                     : Yes
    Alternate group             : 1
    
    

    Mr. Natwarlal (1979) 480p - HD-DVDRip - AVC - AAC-Bollywooda2z
    SINGLE DIRECT FAST LINKS
    
    http://www.heroupload.us/84f19594483ffdd9/Mr.Natwarlal.480p-Bollywooda2z.mp4


    
    http://filefloater.com/V81/Mr.Natwarlal.480p-Bollywooda2z.mp4


    Buy Premium From My Links & Support Me

    Comments

    Add Comment!


    Add comment

    Name:*
    E-Mail:
    Comment:
    • winkwinkedsmileam
      belayfeelfellowlaughing
      lollovenorecourse
      requestsadtonguewassat
      cryingwhatbullyangry
    Security Code: *
    reload, if the code cannot be seen