a b c d e f g h i j k l m n o p q r s t u v w x y z 0-9

Gold (2018) 720p - HDRip - x264 - DD5.1-Bollywooda2z

  • Views: 24
  • Author: stev
  • Date: 30-10-2018, 18:28
  • Category: G / 2018 / Bollywood BluRay - Full HD
  • Rating:
    Description of the movie:
    Gold (2018) 720p - HDRip - x264 - DD5.1-Bollywooda2z



    File size : 1.45 GiB
    Duration : 2 h 25 min
    Overall bit rate : 1 426 kb/s
    
    Video
    ID : 1
    Format : AVC
    Format/Info : Advanced Video Codec
    Format profile : High@L4.1
    Duration : 2 h 25 min
    Bit rate : 1 200 kb/s
    Width : 1 280 pixels
    Height : 544 pixels
    Display aspect ratio : 2.35:1
    Frame rate mode : Constant
    Frame rate : 25.000 FPS
    Color space : YUV
    Chroma subsampling : 4:2:0
    Bit depth : 8 bits
    Scan type : Progressive
    Bits/(Pixel*Frame) : 0.069
    Stream size : 1.22 GiB (84%)
    
    Audio
    ID : 2
    Format : AC-3
    Format/Info : Audio Coding 3
    Codec ID : A_AC3
    Duration : 2 h 25 min
    Bit rate mode : Constant
    Bit rate : 224 kb/s
    Channel(s) : 6 channels
    Channel positions : Front: L C R, Side: L R, LFE
    Sampling rate : 48.0 kHz
    Frame rate : 31.250 FPS (1536 SPF)
    Bit depth : 16 bits
    Compression mode : Lossy
    Stream size : 234 MiB (16%)
    Language : Hindi
    Service kind : Complete Main
    Default : Yes
    Forced : Yes
    
    Text
    ID : 3
    Format : UTF-8
    Codec ID : S_TEXT/UTF8
    Codec ID/Info : UTF-8 Plain Text
    Duration : 2 h 17 min
    Bit rate : 67 b/s
    Count of elements : 2181
    Stream size : 67.9 KiB (0%)
    Language : English
    Default : Yes
    Forced : Yes 


    Gold (2018) 720p - HDRip - x264 - DD5.1-Bollywooda2zGold (2018) 720p - HDRip - x264 - DD5.1-Bollywooda2zGold (2018) 720p - HDRip - x264 - DD5.1-Bollywooda2zGold (2018) 720p - HDRip - x264 - DD5.1-Bollywooda2zGold (2018) 720p - HDRip - x264 - DD5.1-Bollywooda2zGold (2018) 720p - HDRip - x264 - DD5.1-Bollywooda2zGold (2018) 720p - HDRip - x264 - DD5.1-Bollywooda2zGold (2018) 720p - HDRip - x264 - DD5.1-Bollywooda2z

    SINGLE DIRECT FAST LINKS

    http://www.heroupload.us/e9619c605dfd6d85/Gold.2018.Hindi.720p.HDRip.x264.DD5.1.ESUB-BollywoodA2z.mkv


    http://filefloater.com/V5k/Gold.2018.Hindi.720p.HDRip.x264.DD5.1.ESUB-BollywoodA2z.mkv






    Buy Premium From My Links & Support Me

    Comments

    Add Comment!


    Add comment

    Name:*
    E-Mail:
    Comment:
    • winkwinkedsmileam
      belayfeelfellowlaughing
      lollovenorecourse
      requestsadtonguewassat
      cryingwhatbullyangry
    Security Code: *
    reload, if the code cannot be seen