a b c d e f g h i j k l m n o p q r s t u v w x y z 0-9

Gold (2018) 1080p - HDTV - AVC - AAC 2.0-TT Exclusive

  • Views: 42
  • Author: stev
  • Date: 28-10-2018, 15:09
  • Category: Bollywood BluRay - Full HD
  • Rating:
    Description of the movie:
    Gold (2018) 1080p - HDTV - AVC - AAC 2.0-TT Exclusive





    Duration                    : 2 h 20 min
    Overall bit rate mode       : Variable
    Overall bit rate            : 3 580 kb/s
    Encoded date                : UTC 2018-10-28 10:06:55
    Writing application         : mkvmerge v26.0.0 ('In The Game') 64-bit
    Writing library             : libebml v1.3.6 + libmatroska v1.4.9
    
    Video
    ID                          : 1
    Format                      : AVC
    Format/Info                 : Advanced Video Codec
    Format profile              : High@L4.1
    Format settings, CABAC      : Yes
    Format settings, RefFrames  : 4 frames
    Codec ID                    : V_MPEG4/ISO/AVC
    Duration                    : 2 h 20 min
    Bit rate mode               : Variable
    Bit rate                    : 3 500 kb/s
    Width                       : 1 920 pixels
    Height                      : 1 080 pixels
    Display aspect ratio        : 16:9
    Frame rate mode             : Constant
    Frame rate                  : 25.000 FPS
    Standard                    : Component
    Color space                 : YUV
    Chroma subsampling          : 4:2:0
    Bit depth                   : 8 bits
    Scan type                   : Progressive
    Bits/(Pixel*Frame)          : 0.068
    Stream size                 : 3.41 GiB (97%)
    Default                     : Yes
    Forced                      : No
    Color range                 : Limited
    Color primaries             : BT.709
    Transfer characteristics    : BT.709
    Matrix coefficients         : BT.709
    
    Audio
    ID                          : 2
    Format                      : AAC
    Format/Info                 : Advanced Audio Codec
    Format profile              : LC
    Codec ID                    : A_AAC
    Duration                    : 2 h 20 min
    Bit rate                    : 93.4 kb/s
    Channel(s)                  : 2 channels
    Channel positions           : Front: L R
    Sampling rate               : 48.0 kHz
    Frame rate                  : 46.875 FPS (1024 SPF)
    Compression mode            : Lossy
    Delay relative to video     : 21 ms
    Stream size                 : 93.6 MiB (3%)
    Default                     : Yes
    Forced                      : No
    
    


    Gold (2018) 1080p - HDTV - AVC - AAC 2.0-TT ExclusiveGold (2018) 1080p - HDTV - AVC - AAC 2.0-TT ExclusiveGold (2018) 1080p - HDTV - AVC - AAC 2.0-TT ExclusiveGold (2018) 1080p - HDTV - AVC - AAC 2.0-TT ExclusiveGold (2018) 1080p - HDTV - AVC - AAC 2.0-TT ExclusiveGold (2018) 1080p - HDTV - AVC - AAC 2.0-TT Exclusive


    SINGLE DIRECT FAST LINKS
    http://www.heroupload.us/589811c4467f60e7/Gold.2018.1080p.HDTV.Ad-free.AVC.AAC-TT.Exclusive.mkv


    http://filefloater.com/V4z/Gold.2018.1080p.HDTV.Ad-free.AVC.AAC-TT.Exclusive.mkv

    1GB LINKS
    
    http://www.heroupload.us/b333deec3427ed24/Gold.2018.1080p.HDTV.Ad-free.AVC.AAC-TT.Exclusive.part1.rar
    http://www.heroupload.us/57cc695598ddc7cb/Gold.2018.1080p.HDTV.Ad-free.AVC.AAC-TT.Exclusive.part2.rar
    http://www.heroupload.us/32a8a75943ec0b27/Gold.2018.1080p.HDTV.Ad-free.AVC.AAC-TT.Exclusive.part3.rar
    http://www.heroupload.us/2872dec9c417b9c3/Gold.2018.1080p.HDTV.Ad-free.AVC.AAC-TT.Exclusive.part4.rar


    
    http://filefloater.com/1L6o/Gold.2018.1080p.HDTV.Ad-free.AVC.AAC-TT.Exclusive.part1.rar
    http://filefloater.com/1l5v/Gold.2018.1080p.HDTV.Ad-free.AVC.AAC-TT.Exclusive.part2.rar
    http://filefloater.com/1l5w/Gold.2018.1080p.HDTV.Ad-free.AVC.AAC-TT.Exclusive.part3.rar
    http://filefloater.com/1l5x/Gold.2018.1080p.HDTV.Ad-free.AVC.AAC-TT.Exclusive.part4.rar
    


    Buy Premium From My Links & Support Me

    Comments

    Add Comment!


    Add comment

    Name:*
    E-Mail:
    Comment:
    • winkwinkedsmileam
      belayfeelfellowlaughing
      lollovenorecourse
      requestsadtonguewassat
      cryingwhatbullyangry
    Security Code: *
    reload, if the code cannot be seen