a b c d e f g h i j k l m n o p q r s t u v w x y z 0-9

Nanu Ki Jaanu (2018) 720p - HDRip - x264 - DD5.1-Bollywooda2z

  • Views: 21
  • Author: stev
  • Date: 21-10-2018, 19:09
  • Category: N / 2018 / Bollywood BluRay - Full HD
  • Rating:
    Description of the movie:
    Nanu Ki Jaanu (2018) 720p - HDRip - x264 - DD5.1-Bollywooda2z

    Format                      : Matroska
    Format version              : Version 4 / Version 2
    File size                   : 1.44 GiB
    Duration                    : 2 h 5 min
    Overall bit rate            : 1 643 kb/s
    Encoded date                : UTC 2018-10-17 18:55:12
    Writing application         : mkvmerge v7.1.0 ('Good Love') 32bit built on Jul 27 2014 12:59:18
    Writing library             : libebml v1.3.0 + libmatroska v1.4.1
    
    Video
    ID                          : 1
    Format                      : AVC
    Format/Info                 : Advanced Video Codec
    Format profile              : High@L5.1
    Format settings, CABAC      : Yes
    Format settings, RefFrames  : 4 frames
    Codec ID                    : V_MPEG4/ISO/AVC
    Duration                    : 2 h 5 min
    Bit rate                    : 1 476 kb/s
    Width                       : 1 280 pixels
    Height                      : 536 pixels
    Display aspect ratio        : 2.40:1
    Frame rate mode             : Constant
    Frame rate                  : 25.000 FPS
    Color space                 : YUV
    Chroma subsampling          : 4:2:0
    Bit depth                   : 8 bits
    Scan type                   : Progressive
    Bits/(Pixel*Frame)          : 0.086
    Stream size                 : 1.30 GiB (90%)
    Writing library             : x264 core 148 r2744 b97ae06
    Encoding settings           : cabac=1 / ref=2 / deblock=1:0:0 / analyse=0x3:0x113 / me=hex / subme=4 / psy=1 / psy_rd=1.00:0.00 / mixed_ref=0 / me_range=16 / chroma_me=1 / trellis=1 / 8x8dct=1 / cqm=0 / deadzone=21,11 / fast_pskip=1 / chroma_qp_offset=0 / threads=17 / lookahead_threads=4 / sliced_threads=0 / nr=0 / decimate=1 / interlaced=0 / bluray_compat=0 / constrained_intra=0 / bframes=3 / b_pyramid=2 / b_adapt=1 / b_bias=0 / direct=1 / weightb=1 / open_gop=0 / weightp=1 / keyint=250 / keyint_min=25 / scenecut=40 / intra_refresh=0 / rc_lookahead=20 / rc=abr / mbtree=1 / bitrate=1476 / ratetol=1.0 / qcomp=0.60 / qpmin=0 / qpmax=69 / qpstep=4 / vbv_maxrate=300000 / vbv_bufsize=300000 / nal_hrd=none / filler=0 / ip_ratio=1.40 / aq=1:1.00
    Language                    : Hindi
    Default                     : Yes
    Forced                      : No
    
    Audio
    ID                          : 2
    Format                      : AC-3
    Format/Info                 : Audio Coding 3
    Format settings, Endianness : Big
    Codec ID                    : A_AC3
    Duration                    : 2 h 5 min
    Bit rate mode               : Constant
    Bit rate                    : 160 kb/s
    Channel(s)                  : 6 channels
    Channel positions           : Front: L C R, Side: L R, LFE
    Sampling rate               : 44.1 kHz
    Frame rate                  : 28.711 FPS (1536 SPF)
    Bit depth                   : 16 bits
    Compression mode            : Lossy
    Stream size                 : 144 MiB (10%)
    Language                    : Hindi
    Service kind                : Complete Main
    Default                     : Yes
    Forced                      : No
    
    

    Nanu Ki Jaanu (2018) 720p - HDRip - x264 - DD5.1-Bollywooda2zNanu Ki Jaanu (2018) 720p - HDRip - x264 - DD5.1-Bollywooda2zNanu Ki Jaanu (2018) 720p - HDRip - x264 - DD5.1-Bollywooda2zNanu Ki Jaanu (2018) 720p - HDRip - x264 - DD5.1-Bollywooda2zNanu Ki Jaanu (2018) 720p - HDRip - x264 - DD5.1-Bollywooda2z



    SINGLE DIRECT FAST LINKS
    
    http://www.heroupload.us/899efdb6c2f28ef0/Nanu.Ki.Jaanu.2018.Hindi.HDRip.720p.x264.5.1-BollywoodA2z.mkv


    http://filefloater.com/1L3r/Nanu.Ki.Jaanu.2018.Hindi.HDRip.720p.x264.5.1-BollywoodA2z.mkv



    Comments

    Add Comment!


    Add comment

    Name:*
    E-Mail:
    Comment:
    • winkwinkedsmileam
      belayfeelfellowlaughing
      lollovenorecourse
      requestsadtonguewassat
      cryingwhatbullyangry
    Security Code: *
    reload, if the code cannot be seen