a b c d e f g h i j k l m n o p q r s t u v w x y z 0-9

Yevadu 3 (Agnyaathavaasi) (2018) Hindi - 1080p - WEB-HD - AVC - AAC-GM Exclusive

  • Views: 166
  • Author: stev
  • Date: 20-10-2018, 22:10
  • Category: South Indian Hindi Dub Movies
  • Rating:
    Description of the movie:
    Yevadu 3 (Agnyaathavaasi) (2018) Hindi - 1080p - WEB-HD - AVC - AAC-GM Exclusive





    Format                      : MPEG-4
    Format profile              : Base Media
    Codec ID                    : isom (isom/iso2/avc1/mp41)
    File size                   : 2.16 GiB
    Duration                    : 2 h 7 min
    Overall bit rate            : 2 429 kb/s
    Writing application         : Lavf58.9.100
    
    Video
    ID                          : 1
    Format                      : AVC
    Format/Info                 : Advanced Video Codec
    Format profile              : High@L4
    Format settings, CABAC      : Yes
    Format settings, RefFrames  : 2 frames
    Codec ID                    : avc1
    Codec ID/Info               : Advanced Video Coding
    Duration                    : 2 h 7 min
    Bit rate                    : 2 295 kb/s
    Width                       : 1 920 pixels
    Height                      : 1 080 pixels
    Display aspect ratio        : 16:9
    Frame rate mode             : Constant
    Frame rate                  : 25.000 FPS
    Color space                 : YUV
    Chroma subsampling          : 4:2:0
    Bit depth                   : 8 bits
    Scan type                   : Progressive
    Bits/(Pixel*Frame)          : 0.044
    Stream size                 : 2.04 GiB (94%)
    Color range                 : Limited
    Color primaries             : BT.709
    Transfer characteristics    : BT.709
    Matrix coefficients         : BT.709
    
    Audio
    ID                          : 2
    Format                      : AAC
    Format/Info                 : Advanced Audio Codec
    Format profile              : LC
    Codec ID                    : 40
    Duration                    : 2 h 7 min
    Bit rate mode               : Constant
    Bit rate                    : 128 kb/s
    Channel(s)                  : 2 channels
    Channel positions           : Front: L R
    Sampling rate               : 44.1 kHz
    Frame rate                  : 43.066 FPS (1024 SPF)
    Compression mode            : Lossy
    Stream size                 : 116 MiB (5%)
    Language                    : English
    Default                     : Yes
    Alternate group             : 1
    
    


    Yevadu 3 (Agnyaathavaasi) (2018) Hindi - 1080p - WEB-HD - AVC - AAC-GM ExclusiveYevadu 3 (Agnyaathavaasi) (2018) Hindi - 1080p - WEB-HD - AVC - AAC-GM ExclusiveYevadu 3 (Agnyaathavaasi) (2018) Hindi - 1080p - WEB-HD - AVC - AAC-GM ExclusiveYevadu 3 (Agnyaathavaasi) (2018) Hindi - 1080p - WEB-HD - AVC - AAC-GM Exclusive

    SINGLE DIRECT FAST LINKS
    http://www.heroupload.us/d6642180a414db2b/Yevadu.3.Agnyaathavaasi.2018.Hindi.1080p.WEB-HD.AVC.AAC-GM.mp4


    http://filefloater.com/V1y/Yevadu.3.Agnyaathavaasi.2018.Hindi.1080p.WEB-HD.AVC.AAC-GM.mp4


    700MB LINKS
    
    http://www.heroupload.us/ae651f10a1d28658/Yevadu.3.Agnyaathavaasi.2018.Hindi.1080p.WEB-HD.AVC.AAC-GM.part1.rar
    http://www.heroupload.us/f54a3f0bc62f65a9/Yevadu.3.Agnyaathavaasi.2018.Hindi.1080p.WEB-HD.AVC.AAC-GM.part2.rar
    http://www.heroupload.us/1a7fed962edb40e8/Yevadu.3.Agnyaathavaasi.2018.Hindi.1080p.WEB-HD.AVC.AAC-GM.part3.rar
    http://www.heroupload.us/4b54fb9fb612e8af/Yevadu.3.Agnyaathavaasi.2018.Hindi.1080p.WEB-HD.AVC.AAC-GM.part4.rar


    
    http://filefloater.com/V1z/Yevadu.3.Agnyaathavaasi.2018.Hindi.1080p.WEB-HD.AVC.AAC-GM.part1.rar
    http://filefloater.com/1L3o/Yevadu.3.Agnyaathavaasi.2018.Hindi.1080p.WEB-HD.AVC.AAC-GM.part2.rar
    http://filefloater.com/1L3p/Yevadu.3.Agnyaathavaasi.2018.Hindi.1080p.WEB-HD.AVC.AAC-GM.part3.rar
    http://filefloater.com/1L3q/Yevadu.3.Agnyaathavaasi.2018.Hindi.1080p.WEB-HD.AVC.AAC-GM.part4.rar


    Buy Premium From My Links & Support Me

    Comments

    Add Comment!


    Add comment

    Name:*
    E-Mail:
    Comment:
    • winkwinkedsmileam
      belayfeelfellowlaughing
      lollovenorecourse
      requestsadtonguewassat
      cryingwhatbullyangry
    Security Code: *
    reload, if the code cannot be seen