a b c d e f g h i j k l m n o p q r s t u v w x y z 0-9

Hello Guru Prema Kosame (2018) Telugu - 1080p - PreDVDRip - x264 - MP3-TMV

  • Views: 69
  • Author: stev
  • Date: 19-10-2018, 01:19
  • Category: Telugu Movies
  • Rating:
    Description of the movie:
    Hello Guru Prema Kosame (2018) Telugu - 1080p - PreDVDRip - x264 - MP3-TMV





    Format                      : Matroska
    Format version              : Version 4 / Version 2
    File size                   : 2.10 GiB
    Duration                    : 2 h 13 min
    Overall bit rate mode       : Variable
    Overall bit rate            : 2 251 kb/s
    Encoded date                : UTC 2018-10-18 17:21:26
    Writing application         : mkvmerge v7.1.0 ('Good Love') 32bit built on Jul 27 2014 12:59:18
    Writing library             : libebml v1.3.0 + libmatroska v1.4.1
    
    Video
    ID                          : 1
    Format                      : AVC
    Format/Info                 : Advanced Video Codec
    Format profile              : High@L4
    Format settings, CABAC      : Yes
    Format settings, RefFrames  : 4 frames
    Codec ID                    : V_MPEG4/ISO/AVC
    Duration                    : 2 h 13 min
    Bit rate                    : 2 152 kb/s
    Width                       : 1 920 pixels
    Height                      : 816 pixels
    Display aspect ratio        : 2.35:1
    Frame rate mode             : Constant
    Frame rate                  : 23.976 (24000/1001) FPS
    Color space                 : YUV
    Chroma subsampling          : 4:2:0
    Bit depth                   : 8 bits
    Scan type                   : Progressive
    Bits/(Pixel*Frame)          : 0.057
    Stream size                 : 2.01 GiB (96%)
    Writing library             : x264 core 155 r2901 7d0ff22
    Encoding settings           : cabac=1 / ref=3 / deblock=1:0:0 / analyse=0x3:0x113 / me=hex / subme=7 / psy=1 / psy_rd=1.00:0.00 / mixed_ref=1 / me_range=16 / chroma_me=1 / trellis=1 / 8x8dct=1 / cqm=0 / deadzone=21,11 / fast_pskip=1 / chroma_qp_offset=-2 / threads=25 / lookahead_threads=4 / sliced_threads=0 / nr=0 / decimate=1 / interlaced=0 / bluray_compat=0 / constrained_intra=0 / bframes=3 / b_pyramid=2 / b_adapt=1 / b_bias=0 / direct=1 / weightb=1 / open_gop=0 / weightp=2 / keyint=240 / keyint_min=23 / scenecut=40 / intra_refresh=0 / rc_lookahead=40 / rc=2pass / mbtree=1 / bitrate=2152 / ratetol=1.0 / qcomp=0.60 / qpmin=0 / qpmax=69 / qpstep=4 / cplxblur=20.0 / qblur=0.5 / ip_ratio=1.40 / aq=1:1.00
    Language                    : Telugu
    Default                     : Yes
    Forced                      : No
    
    Audio
    ID                          : 2
    Format                      : MPEG Audio
    Format version              : Version 1
    Format profile              : Layer 3
    Mode                        : Joint stereo
    Mode extension              : MS Stereo
    Codec ID                    : A_MPEG/L3
    Codec ID/Hint               : MP3
    Duration                    : 2 h 13 min
    Bit rate mode               : Variable
    Bit rate                    : 96.0 kb/s
    Channel(s)                  : 2 channels
    Sampling rate               : 44.1 kHz
    Frame rate                  : 38.281 FPS (1152 SPF)
    Compression mode            : Lossy
    Stream size                 : 92.4 MiB (4%)
    Writing library             : LAME3.99r
    Encoding settings           : -m j -V 4 -q 3 -lowpass 15.1 --abr 96
    Language                    : Telugu
    Default                     : Yes
    Forced                      : No
    
    


    Hello Guru Prema Kosame (2018) Telugu - 1080p - PreDVDRip - x264 - MP3-TMVHello Guru Prema Kosame (2018) Telugu - 1080p - PreDVDRip - x264 - MP3-TMVHello Guru Prema Kosame (2018) Telugu - 1080p - PreDVDRip - x264 - MP3-TMVHello Guru Prema Kosame (2018) Telugu - 1080p - PreDVDRip - x264 - MP3-TMVHello Guru Prema Kosame (2018) Telugu - 1080p - PreDVDRip - x264 - MP3-TMVHello Guru Prema Kosame (2018) Telugu - 1080p - PreDVDRip - x264 - MP3-TMVHello Guru Prema Kosame (2018) Telugu - 1080p - PreDVDRip - x264 - MP3-TMVHello Guru Prema Kosame (2018) Telugu - 1080p - PreDVDRip - x264 - MP3-TMVHello Guru Prema Kosame (2018) Telugu - 1080p - PreDVDRip - x264 - MP3-TMVHello Guru Prema Kosame (2018) Telugu - 1080p - PreDVDRip - x264 - MP3-TMV


    SINGLE DIRECT FAST LINKS
    http://www.heroupload.us/012b64b6dfbc9e0a/Hello.Guru.Prema.Kosame.2018.Telugu.PreDVD.1080p.x264-TMV.mkv


    http://filefloater.com/V15/Hello.Guru.Prema.Kosame.2018.Telugu.PreDVD.1080p.x264-TMV.mkv

    700MB LINKS
    
    http://www.heroupload.us/28cc199cd6eb3fd1/Hello.Guru.Prema.Kosame.2018.Telugu.PreDVD.1080p.x264-TMV.part1.rar
    http://www.heroupload.us/a5f4933239a064f7/Hello.Guru.Prema.Kosame.2018.Telugu.PreDVD.1080p.x264-TMV.part2.rar
    http://www.heroupload.us/3cc47e9e1ac35660/Hello.Guru.Prema.Kosame.2018.Telugu.PreDVD.1080p.x264-TMV.part3.rar
    http://www.heroupload.us/92dadc4f19d1851d/Hello.Guru.Prema.Kosame.2018.Telugu.PreDVD.1080p.x264-TMV.part4.rar


    
    http://filefloater.com/V16/Hello.Guru.Prema.Kosame.2018.Telugu.PreDVD.1080p.x264-TMV.part1.rar
    http://filefloater.com/V17/Hello.Guru.Prema.Kosame.2018.Telugu.PreDVD.1080p.x264-TMV.part2.rar
    http://filefloater.com/V18/Hello.Guru.Prema.Kosame.2018.Telugu.PreDVD.1080p.x264-TMV.part3.rar
    http://filefloater.com/V19/Hello.Guru.Prema.Kosame.2018.Telugu.PreDVD.1080p.x264-TMV.part4.rar


    Buy Premium From My Links & Support Me

    Comments

    Add Comment!


    Add comment

    Name:*
    E-Mail:
    Comment:
    • winkwinkedsmileam
      belayfeelfellowlaughing
      lollovenorecourse
      requestsadtonguewassat
      cryingwhatbullyangry
    Security Code: *
    reload, if the code cannot be seen