a b c d e f g h i j k l m n o p q r s t u v w x y z 0-9

Enga Kaattula Mazhai (2018) Tamil - 1080p - WEB-HD - AVC - AAC-MTR

  • Views: 153
  • Author: stev
  • Date: 18-10-2018, 01:40
  • Category: Tamil Movies
  • Rating:
    Description of the movie:
    Enga Kaattula Mazhai (2018) Tamil - 1080p - WEB-HD - AVC - AAC-MTR





    Format                      : MPEG-4
    Format profile              : Base Media
    Codec ID                    : isom (isom)
    File size                   : 2.43 GiB
    Duration                    : 1 h 55 min
    Overall bit rate mode       : Variable
    Overall bit rate            : 3 002 kb/s
    Encoded date                : UTC 2018-10-16 06:20:35
    Tagged date                 : UTC 2018-10-16 06:20:35
    Writing application         : MkvToMp4 [www.mkvtomp4.ru] version 0.224 (x64)
    
    Video
    ID                          : 1
    Format                      : AVC
    Format/Info                 : Advanced Video Codec
    Format profile              : High@L4.1
    Format settings, CABAC      : Yes
    Format settings, RefFrames  : 4 frames
    Codec ID                    : avc1
    Codec ID/Info               : Advanced Video Coding
    Duration                    : 1 h 55 min
    Bit rate                    : 2 870 kb/s
    Nominal bit rate            : 3 500 kb/s
    Maximum bit rate            : 4 938 kb/s
    Width                       : 1 920 pixels
    Height                      : 1 080 pixels
    Display aspect ratio        : 16:9
    Frame rate mode             : Constant
    Frame rate                  : 25.000 FPS
    Color space                 : YUV
    Chroma subsampling          : 4:2:0
    Bit depth                   : 8 bits
    Scan type                   : Progressive
    Bits/(Pixel*Frame)          : 0.055
    Stream size                 : 2.32 GiB (96%)
    Writing library             : x264 core 148 r2694 3b70645
    Encoding settings           : cabac=1 / ref=3 / deblock=1:0:0 / analyse=0x3:0x113 / me=hex / subme=7 / psy=1 / psy_rd=1.00:0.00 / mixed_ref=1 / me_range=16 / chroma_me=1 / trellis=1 / 8x8dct=1 / cqm=0 / deadzone=21,11 / fast_pskip=1 / chroma_qp_offset=-2 / threads=34 / lookahead_threads=5 / sliced_threads=0 / nr=0 / decimate=1 / interlaced=0 / bluray_compat=0 / constrained_intra=0 / bframes=3 / b_pyramid=2 / b_adapt=1 / b_bias=0 / direct=1 / weightb=1 / open_gop=0 / weightp=2 / keyint=50 / keyint_min=26 / scenecut=0 / intra_refresh=0 / rc_lookahead=40 / rc=cbr / mbtree=1 / bitrate=3500 / ratetol=1.0 / qcomp=0.60 / qpmin=0 / qpmax=69 / qpstep=4 / vbv_maxrate=3500 / vbv_bufsize=3500 / nal_hrd=none / filler=0 / ip_ratio=1.40 / aq=1:1.00
    Language                    : English
    Tagged date                 : UTC 2018-10-16 06:20:45
    
    Audio
    ID                          : 2
    Format                      : AAC
    Format/Info                 : Advanced Audio Codec
    Format profile              : LC
    Codec ID                    : 40
    Duration                    : 1 h 55 min
    Bit rate mode               : Variable
    Bit rate                    : 128 kb/s
    Maximum bit rate            : 141 kb/s
    Channel(s)                  : 2 channels
    Channel positions           : Front: L R
    Sampling rate               : 48.0 kHz
    Frame rate                  : 46.875 FPS (1024 SPF)
    Compression mode            : Lossy
    Stream size                 : 106 MiB (4%)
    Language                    : English
    Default                     : Yes
    Alternate group             : 1
    Encoded date                : UTC 2018-10-16 06:20:42
    Tagged date                 : UTC 2018-10-16 06:20:45
    
    


    Enga Kaattula Mazhai (2018) Tamil - 1080p - WEB-HD - AVC - AAC-MTREnga Kaattula Mazhai (2018) Tamil - 1080p - WEB-HD - AVC - AAC-MTREnga Kaattula Mazhai (2018) Tamil - 1080p - WEB-HD - AVC - AAC-MTREnga Kaattula Mazhai (2018) Tamil - 1080p - WEB-HD - AVC - AAC-MTREnga Kaattula Mazhai (2018) Tamil - 1080p - WEB-HD - AVC - AAC-MTREnga Kaattula Mazhai (2018) Tamil - 1080p - WEB-HD - AVC - AAC-MTR
    SINGLE DIRECT FAST LINKS
    http://www.heroupload.us/deeff5e85c526d1d/Enga.Kaattula.Mazhai.2018.Tamil.1080p.HD.MP4-MTR.mp4


    http://filefloater.com/V0u/Enga.Kaattula.Mazhai.2018.Tamil.1080p.HD.MP4-MTR.mp4

    700MB LINKS
    
    http://www.heroupload.us/b6c6c85b1e4aab87/Enga.Kaattula.Mazhai.2018.Tamil.1080p.HD.MP4-MTR.part1.rar
    http://www.heroupload.us/4c8d3371c26bbb77/Enga.Kaattula.Mazhai.2018.Tamil.1080p.HD.MP4-MTR.part2.rar
    http://www.heroupload.us/5e763eb2a3fe4e91/Enga.Kaattula.Mazhai.2018.Tamil.1080p.HD.MP4-MTR.part3.rar
    http://www.heroupload.us/acb426301b12bf5c/Enga.Kaattula.Mazhai.2018.Tamil.1080p.HD.MP4-MTR.part4.rar


    
    http://filefloater.com/V0v/Enga.Kaattula.Mazhai.2018.Tamil.1080p.HD.MP4-MTR.part1.rar
    http://filefloater.com/V0w/Enga.Kaattula.Mazhai.2018.Tamil.1080p.HD.MP4-MTR.part2.rar
    http://filefloater.com/V0x/Enga.Kaattula.Mazhai.2018.Tamil.1080p.HD.MP4-MTR.part3.rar
    http://filefloater.com/V0y/Enga.Kaattula.Mazhai.2018.Tamil.1080p.HD.MP4-MTR.part4.rar


    Buy Premium From My Links & Support Me

    Comments

    Add Comment!


    Add comment

    Name:*
    E-Mail:
    Comment:
    • winkwinkedsmileam
      belayfeelfellowlaughing
      lollovenorecourse
      requestsadtonguewassat
      cryingwhatbullyangry
    Security Code: *
    reload, if the code cannot be seen