a b c d e f g h i j k l m n o p q r s t u v w x y z 0-9

Raja Babu (1994) 720p - HD-DVDRip - x264 - AAC-Bollywooda2z

  • Views: 43
  • Author: stev
  • Date: 17-10-2018, 17:24
  • Category: Bollywood DVDRips - HDRips / R / 1994
  • Rating:
    Description of the movie:
    Raja Babu (1994) 720p - HD-DVDRip - x264 - AAC-Bollywooda2z
    Format                      : Matroska
    Format version              : Version 4 / Version 2
    File size                   : 1.33 GiB
    Duration                    : 2 h 24 min
    Overall bit rate            : 1 316 kb/s
    Encoded date                : UTC 2018-04-24 14:01:37
    Writing application         : mkvmerge v21.0.0 ('Tardigrades Will Inherit The Earth') 32-bit
    Writing library             : libebml v1.3.5 + libmatroska v1.4.8
    Cover                       : Yes
    Attachments                 : Cover.jpg
    
    Video
    ID                          : 1
    Format                      : AVC
    Format/Info                 : Advanced Video Codec
    Format profile              : Baseline@L3.1
    Format settings, CABAC      : No
    Format settings, RefFrames  : 3 frames
    Format settings, GOP        : M=1, N=50
    Codec ID                    : V_MPEG4/ISO/AVC
    Duration                    : 2 h 24 min
    Bit rate                    : 1 216 kb/s
    Width                       : 1 280 pixels
    Height                      : 720 pixels
    Display aspect ratio        : 2.25:1
    Frame rate mode             : Constant
    Frame rate                  : 25.000 FPS
    Color space                 : YUV
    Chroma subsampling          : 4:2:0
    Bit depth                   : 8 bits
    Scan type                   : Progressive
    Bits/(Pixel*Frame)          : 0.053
    Stream size                 : 1.23 GiB (93%)
    Writing library             : x264 core 135
    Encoding settings           : cabac=0 / ref=3 / deblock=1:0:0 / analyse=0x1:0x111 / me=hex / subme=7 / psy=1 / psy_rd=1.00:0.00 / mixed_ref=1 / me_range=16 / chroma_me=1 / trellis=1 / 8x8dct=0 / cqm=0 / deadzone=21,11 / fast_pskip=1 / chroma_qp_offset=-2 / threads=2 / lookahead_threads=1 / sliced_threads=0 / nr=0 / decimate=1 / interlaced=0 / bluray_compat=0 / constrained_intra=0 / bframes=0 / weightp=0 / keyint=50 / keyint_min=5 / scenecut=40 / intra_refresh=0 / rc_lookahead=40 / rc=abr / mbtree=1 / bitrate=1216 / ratetol=1.0 / qcomp=0.60 / qpmin=0 / qpmax=51 / qpstep=4 / ip_ratio=1.40 / aq=1:1.00
    Language                    : Hindi
    Default                     : Yes
    Forced                      : No
    
    Audio
    ID                          : 2
    Format                      : AAC
    Format/Info                 : Advanced Audio Codec
    Format profile              : LC
    Codec ID                    : A_AAC
    Duration                    : 2 h 24 min
    Bit rate                    : 96.0 kb/s
    Channel(s)                  : 2 channels
    Channel positions           : Front: L R
    Sampling rate               : 44.1 kHz
    Frame rate                  : 43.066 FPS (1024 SPF)
    Compression mode            : Lossy
    Delay relative to video     : -36 ms
    Stream size                 : 99.3 MiB (7%)
    Language                    : Hindi
    Default                     : Yes
    Forced                      : No
    
    

    Raja Babu (1994) 720p - HD-DVDRip - x264 - AAC-Bollywooda2z
    SINGLE DIRECT FAST LINKS
    
    http://www.heroupload.us/9fad0d334308949c/Raja.Babu.1994.mkv


    
    http://filefloater.com/2B3y/Raja.Babu.1994.mkv

    Comments

    Add Comment!


    Add comment

    Name:*
    E-Mail:
    Comment:
    • winkwinkedsmileam
      belayfeelfellowlaughing
      lollovenorecourse
      requestsadtonguewassat
      cryingwhatbullyangry
    Security Code: *
    reload, if the code cannot be seen