a b c d e f g h i j k l m n o p q r s t u v w x y z 0-9

Waah! Tera Kya Kehna (2002) 540p - HD-DVDRip - x264 - AC3-Bollywooda2z

  • Views: 34
  • Author: stev
  • Date: 17-10-2018, 17:15
  • Category: Bollywood DVDRips - HDRips / W / 2002
  • Rating:
    Description of the movie:
    Waah! Tera Kya Kehna (2002) 540p - HD-DVDRip - x264 - AC3-Bollywooda2z

    Format                      : MPEG-4
    Format profile              : Base Media / Version 2
    Codec ID                    : mp42 (isom/mp42)
    File size                   : 1.10 GiB
    Duration                    : 2 h 12 min
    Overall bit rate mode       : Variable
    Overall bit rate            : 1 187 kb/s
    Encoded date                : UTC 2018-09-29 20:12:59
    Tagged date                 : UTC 2018-09-29 20:12:59
    gsst                        : 0
    gstd                        : 7974405
    
    Video
    ID                          : 1
    Format                      : AVC
    Format/Info                 : Advanced Video Codec
    Format profile              : Main@L3.1
    Format settings, CABAC      : Yes
    Format settings, RefFrames  : 3 frames
    Codec ID                    : avc1
    Codec ID/Info               : Advanced Video Coding
    Duration                    : 2 h 12 min
    Bit rate                    : 1 057 kb/s
    Width                       : 1 280 pixels
    Height                      : 546 pixels
    Display aspect ratio        : 2.35:1
    Frame rate mode             : Variable
    Frame rate                  : 23.976 (24000/1001) FPS
    Minimum frame rate          : 23.974 FPS
    Maximum frame rate          : 23.981 FPS
    Color space                 : YUV
    Chroma subsampling          : 4:2:0
    Bit depth                   : 8 bits
    Scan type                   : Progressive
    Bits/(Pixel*Frame)          : 0.063
    Stream size                 : 1 005 MiB (89%)
    Title                       : ISO Media file produced by Google Inc. Created on: 09/29/2018.
    Encoded date                : UTC 2018-09-29 20:12:59
    Tagged date                 : UTC 2018-09-29 20:12:59
    Color range                 : Limited
    Color primaries             : BT.709
    Transfer characteristics    : BT.709
    Matrix coefficients         : BT.709
    
    Audio
    ID                          : 2
    Format                      : AAC
    Format/Info                 : Advanced Audio Codec
    Format profile              : LC
    Codec ID                    : 40
    Duration                    : 2 h 12 min
    Bit rate mode               : Variable
    Bit rate                    : 126 kb/s
    Channel(s)                  : 2 channels
    Channel positions           : Front: L R
    Sampling rate               : 44.1 kHz
    Frame rate                  : 43.066 FPS (1024 SPF)
    Compression mode            : Lossy
    Stream size                 : 119 MiB (11%)
    Title                       : ISO Media file produced by Google Inc. Created on: 09/29/2018.
    Encoded date                : UTC 2018-09-29 20:12:59
    Tagged date                 : UTC 2018-09-29 20:12:59
    
    


    Waah! Tera Kya Kehna (2002) 540p - HD-DVDRip - x264 - AC3-Bollywooda2z
    SINGLE DIRECT FAST LINKS
    http://www.heroupload.us/62f41d99bc989baa/Waah.Tera.Kya.Kehna.546p-BollywoodA2z.mp4


    
    http://filefloater.com/2B3A/Waah.Tera.Kya.Kehna.546p-BollywoodA2z.mp4


    Comments

    Add Comment!


    Add comment

    Name:*
    E-Mail:
    Comment:
    • winkwinkedsmileam
      belayfeelfellowlaughing
      lollovenorecourse
      requestsadtonguewassat
      cryingwhatbullyangry
    Security Code: *
    reload, if the code cannot be seen