a b c d e f g h i j k l m n o p q r s t u v w x y z 0-9

Money Hai Toh Honey Hai (2008) 720p - HD-DVDRip - x264 - AC3-Bollywooda2z

  • Views: 39
  • Author: stev
  • Date: 17-10-2018, 17:10
  • Category: Bollywood DVDRips - HDRips / M / 2008
  • Rating:
    Description of the movie:
    Money Hai Toh Honey Hai (2008) 720p - HD-DVDRip - x264 - AC3-Bollywooda2z
    Format                      : Matroska
    Format version              : Version 4 / Version 2
    File size                   : 991 MiB
    Duration                    : 2 h 17 min
    Overall bit rate            : 1 009 kb/s
    Encoded date                : UTC 2015-03-05 11:50:29
    Writing application         : mkvmerge v6.1.0 ('Old Devil') built on Mar  2 2013 14:32:37
    Writing library             : libebml v1.3.0 + libmatroska v1.4.0 / Lavf55.12.0
    
    Video
    ID                          : 1
    Format                      : AVC
    Format/Info                 : Advanced Video Codec
    Format profile              : High@L4.1
    Format settings, CABAC      : Yes
    Format settings, RefFrames  : 4 frames
    Codec ID                    : V_MPEG4/ISO/AVC
    Duration                    : 2 h 17 min
    Bit rate                    : 880 kb/s
    Width                       : 1 280 pixels
    Height                      : 544 pixels
    Display aspect ratio        : 2.35:1
    Frame rate mode             : Constant
    Frame rate                  : 23.976 (24000/1001) FPS
    Color space                 : YUV
    Chroma subsampling          : 4:2:0
    Bit depth                   : 8 bits
    Scan type                   : Progressive
    Bits/(Pixel*Frame)          : 0.053
    Stream size                 : 845 MiB (85%)
    Writing library             : x264 core 142 r2479 dd79a61
    Encoding settings           : cabac=1 / ref=2 / deblock=1:0:0 / analyse=0x3:0x113 / me=hex / subme=4 / psy=1 / psy_rd=1.00:0.00 / mixed_ref=0 / me_range=16 / chroma_me=1 / trellis=1 / 8x8dct=1 / cqm=0 / deadzone=21,11 / fast_pskip=1 / chroma_qp_offset=0 / threads=36 / lookahead_threads=4 / sliced_threads=0 / nr=0 / decimate=1 / interlaced=0 / bluray_compat=0 / constrained_intra=0 / bframes=3 / b_pyramid=2 / b_adapt=1 / b_bias=0 / direct=1 / weightb=1 / open_gop=0 / weightp=1 / keyint=240 / keyint_min=24 / scenecut=40 / intra_refresh=0 / rc_lookahead=20 / rc=2pass / mbtree=1 / bitrate=880 / ratetol=1.0 / qcomp=0.60 / qpmin=0 / qpmax=69 / qpstep=4 / cplxblur=20.0 / qblur=0.5 / vbv_maxrate=62500 / vbv_bufsize=78125 / nal_hrd=none / filler=0 / ip_ratio=1.40 / aq=1:1.00
    Default                     : Yes
    Forced                      : No
    Color range                 : Limited
    Color primaries             : BT.709
    Transfer characteristics    : BT.709
    Matrix coefficients         : BT.709
    
    Audio
    ID                          : 2
    Format                      : AC-3
    Format/Info                 : Audio Coding 3
    Format settings, Endianness : Big
    Codec ID                    : A_AC3
    Duration                    : 2 h 17 min
    Bit rate mode               : Constant
    Bit rate                    : 128 kb/s
    Channel(s)                  : 2 channels
    Channel positions           : Front: L R
    Sampling rate               : 48.0 kHz
    Frame rate                  : 31.250 FPS (1536 SPF)
    Bit depth                   : 16 bits
    Compression mode            : Lossy
    Delay relative to video     : -5 ms
    Stream size                 : 126 MiB (13%)
    Service kind                : Complete Main
    Default                     : Yes
    Forced                      : No
    
    

    Money Hai Toh Honey Hai (2008) 720p - HD-DVDRip - x264 - AC3-Bollywooda2z
    SINGLE DIRECT FAST LINKS
    
    http://www.heroupload.us/68a07bfd7fb2cdf1/Money.Hai.Toh.Honey.Hai.mkv


    
    http://filefloater.com/2B3w/Money.Hai.Toh.Honey.Hai.mkv

    Comments

    Add Comment!


    Add comment

    Name:*
    E-Mail:
    Comment:
    • winkwinkedsmileam
      belayfeelfellowlaughing
      lollovenorecourse
      requestsadtonguewassat
      cryingwhatbullyangry
    Security Code: *
    reload, if the code cannot be seen