a b c d e f g h i j k l m n o p q r s t u v w x y z 0-9

Khullam Khulla Pyaar Karen (2005) 720p - HD-DVDRip - AVC - AAC-Bollywooda2z

  • Views: 33
  • Author: stev
  • Date: 17-10-2018, 16:52
  • Category: Bollywood DVDRips - HDRips / K / 2005
  • Rating:
    Description of the movie:
    Khullam Khulla Pyaar Karen (2005) 720p - HD-DVDRip - AVC - AAC-Bollywooda2z

    Format                      : MPEG-4
    Format profile              : Base Media
    Codec ID                    : isom (isom/iso2/avc1/mp41)
    File size                   : 1.10 GiB
    Duration                    : 2 h 21 min
    Overall bit rate            : 1 115 kb/s
    Writing application         : Lavf57.83.100
    
    Video
    ID                          : 1
    Format                      : AVC
    Format/Info                 : Advanced Video Codec
    Format profile              : High@L3.1
    Format settings, CABAC      : Yes
    Format settings, RefFrames  : 5 frames
    Codec ID                    : avc1
    Codec ID/Info               : Advanced Video Coding
    Duration                    : 2 h 21 min
    Bit rate                    : 1 024 kb/s
    Width                       : 1 264 pixels
    Height                      : 448 pixels
    Display aspect ratio        : 2.821
    Frame rate mode             : Constant
    Frame rate                  : 25.000 FPS
    Color space                 : YUV
    Chroma subsampling          : 4:2:0
    Bit depth                   : 8 bits
    Scan type                   : Progressive
    Bits/(Pixel*Frame)          : 0.072
    Stream size                 : 1.01 GiB (92%)
    Writing library             : x264 core 148 r2643 5c65704
    Encoding settings           : cabac=1 / ref=5 / deblock=1:0:0 / analyse=0x3:0x113 / me=hex / subme=7 / psy=1 / psy_rd=1.00:0.00 / mixed_ref=1 / me_range=16 / chroma_me=1 / trellis=1 / 8x8dct=1 / cqm=0 / deadzone=21,11 / fast_pskip=1 / chroma_qp_offset=-2 / threads=7 / lookahead_threads=7 / sliced_threads=1 / slices=7 / nr=0 / decimate=1 / interlaced=0 / bluray_compat=0 / constrained_intra=0 / bframes=0 / weightp=2 / keyint=250 / keyint_min=25 / scenecut=40 / intra_refresh=0 / rc=abr / mbtree=0 / bitrate=1024 / ratetol=1.0 / qcomp=0.60 / qpmin=0 / qpmax=69 / qpstep=4 / ip_ratio=1.40 / aq=1:1.00
    Language                    : English
    
    Audio
    ID                          : 2
    Format                      : AAC
    Format/Info                 : Advanced Audio Codec
    Format profile              : LC
    Codec ID                    : 40
    Duration                    : 2 h 21 min
    Bit rate mode               : Constant
    Bit rate                    : 82.1 kb/s
    Channel(s)                  : 2 channels
    Channel positions           : Front: L R
    Sampling rate               : 48.0 kHz
    Frame rate                  : 46.875 FPS (1024 SPF)
    Compression mode            : Lossy
    Stream size                 : 82.8 MiB (7%)
    Language                    : English
    Default                     : Yes
    Alternate group             : 1
    
    


    Khullam Khulla Pyaar Karen (2005) 720p - HD-DVDRip - AVC - AAC-Bollywooda2z

    SINGLE DIRECT FAST LINKS
    
    http://www.heroupload.us/f8c0f2cb64a61c2d/Khullam.Khulla.Pyaar.Karen.2005.720p-BollywoodA2z.mp4


    
    http://filefloater.com/2B3s/Khullam.Khulla.Pyaar.Karen.2005.720p-BollywoodA2z.mp4

    Comments

    Add Comment!


    Add comment

    Name:*
    E-Mail:
    Comment:
    • winkwinkedsmileam
      belayfeelfellowlaughing
      lollovenorecourse
      requestsadtonguewassat
      cryingwhatbullyangry
    Security Code: *
    reload, if the code cannot be seen