a b c d e f g h i j k l m n o p q r s t u v w x y z 0-9

Do Knot Disturb (2009) 720p - HD-DVDRip - x264 - DD5.1-Bollywooda2z

  • Views: 24
  • Author: stev
  • Date: 17-10-2018, 16:13
  • Category: Bollywood DVDRips - HDRips / D / 2009
  • Rating:
    Description of the movie:
    Do Knot Disturb (2009) 720p - HD-DVDRip - x264 - DD5.1-Bollywooda2z
    Format                      : Matroska
    Format version              : Version 4 / Version 2
    File size                   : 948 MiB
    Duration                    : 1 h 59 min
    Overall bit rate            : 1 105 kb/s
    Movie name                  : V!S!T & SupPort -::- World4uFRee.com -::-Do Knot Disturb 2009 Hindi 720p Dvdrip / V!S!T & SupPort -::- World4uFRee.com -::-Dharam Sankat Mein 2015 Hindi Dvdscr 350mb
    Encoded date                : UTC 2015-05-05 15:13:24
    Writing application         : mkvmerge v6.1.0 ('Old Devil') built on Mar  2 2013 14:32:37
    Writing library             : libebml v1.3.0 + libmatroska v1.4.0
    
    Video
    ID                          : 1
    Format                      : AVC
    Format/Info                 : Advanced Video Codec
    Format profile              : High@L4.1
    Format settings, CABAC      : Yes
    Format settings, RefFrames  : 4 frames
    Codec ID                    : V_MPEG4/ISO/AVC
    Duration                    : 1 h 59 min
    Bit rate                    : 880 kb/s
    Width                       : 1 280 pixels
    Height                      : 544 pixels
    Display aspect ratio        : 2.35:1
    Frame rate mode             : Constant
    Frame rate                  : 23.976 (24000/1001) FPS
    Color space                 : YUV
    Chroma subsampling          : 4:2:0
    Bit depth                   : 8 bits
    Scan type                   : Progressive
    Bits/(Pixel*Frame)          : 0.053
    Stream size                 : 737 MiB (78%)
    Title                       : V!S!T & SupPort -::- World4uFRee.com -::-Do Knot Disturb 2009 Hindi 720p Dvdrip
    Writing library             : x264 core 130 r2273 b3065e6
    Encoding settings           : cabac=1 / ref=2 / deblock=1:0:0 / analyse=0x3:0x113 / me=hex / subme=4 / psy=1 / psy_rd=1.00:0.00 / mixed_ref=0 / me_range=16 / chroma_me=1 / trellis=1 / 8x8dct=1 / cqm=0 / deadzone=21,11 / fast_pskip=1 / chroma_qp_offset=0 / threads=12 / lookahead_threads=3 / sliced_threads=0 / nr=0 / decimate=1 / interlaced=0 / bluray_compat=0 / constrained_intra=0 / bframes=3 / b_pyramid=2 / b_adapt=1 / b_bias=0 / direct=1 / weightb=1 / open_gop=0 / weightp=1 / keyint=240 / keyint_min=24 / scenecut=40 / intra_refresh=0 / rc_lookahead=20 / rc=2pass / mbtree=1 / bitrate=880 / ratetol=1.0 / qcomp=0.60 / qpmin=0 / qpmax=69 / qpstep=4 / cplxblur=20.0 / qblur=0.5 / vbv_maxrate=62500 / vbv_bufsize=78125 / nal_hrd=none / ip_ratio=1.40 / aq=1:1.00
    Language                    : English
    Default                     : Yes
    Forced                      : No
    Color range                 : Limited
    Color primaries             : BT.709
    Transfer characteristics    : BT.709
    Matrix coefficients         : BT.709
    
    Audio
    ID                          : 2
    Format                      : AC-3
    Format/Info                 : Audio Coding 3
    Format settings, Endianness : Big
    Codec ID                    : A_AC3
    Duration                    : 1 h 59 min
    Bit rate mode               : Constant
    Bit rate                    : 224 kb/s
    Channel(s)                  : 6 channels
    Channel positions           : Front: L C R, Side: L R, LFE
    Sampling rate               : 48.0 kHz
    Frame rate                  : 31.250 FPS (1536 SPF)
    Bit depth                   : 16 bits
    Compression mode            : Lossy
    Stream size                 : 192 MiB (20%)
    Language                    : Hindi
    Service kind                : Complete Main
    Default                     : Yes
    Forced                      : No
    
    

    Do Knot Disturb (2009) 720p - HD-DVDRip - x264 - DD5.1-Bollywooda2z
    SINGLE DIRECT FAST LINKS
    
    http://www.heroupload.us/37bbd0c5c7585924/Do.Knot.Disturb.2009.mkv


    
    http://filefloater.com/1L1z/Do.Knot.Disturb.2009.mkv

    Comments

    Add Comment!


    Add comment

    Name:*
    E-Mail:
    Comment:
    • winkwinkedsmileam
      belayfeelfellowlaughing
      lollovenorecourse
      requestsadtonguewassat
      cryingwhatbullyangry
    Security Code: *
    reload, if the code cannot be seen