a b c d e f g h i j k l m n o p q r s t u v w x y z 0-9

Chal Chala Chal (2009) 720p - HD-DVDRip - AVC - AAC-Bollywooda2z

  • Views: 21
  • Author: stev
  • Date: 17-10-2018, 16:02
  • Category: Bollywood DVDRips - HDRips / C / 2009
  • Rating:
    Description of the movie:
    Chal Chala Chal (2009) 720p - HD-DVDRip - AVC - AAC-Bollywooda2z

    Format                      : MPEG-4
    Format profile              : Base Media / Version 2
    Codec ID                    : mp42 (isom/mp42)
    File size                   : 1 012 MiB
    Duration                    : 2 h 14 min
    Overall bit rate mode       : Variable
    Overall bit rate            : 1 049 kb/s
    Encoded date                : UTC 2018-08-11 16:26:08
    Tagged date                 : UTC 2018-08-11 16:26:08
    gsst                        : 0
    gstd                        : 8099491
    
    Video
    ID                          : 1
    Format                      : AVC
    Format/Info                 : Advanced Video Codec
    Format profile              : Main@L3.1
    Format settings, CABAC      : Yes
    Format settings, RefFrames  : 3 frames
    Codec ID                    : avc1
    Codec ID/Info               : Advanced Video Coding
    Duration                    : 2 h 14 min
    Bit rate                    : 919 kb/s
    Width                       : 1 280 pixels
    Height                      : 720 pixels
    Display aspect ratio        : 16:9
    Frame rate mode             : Constant
    Frame rate                  : 25.000 FPS
    Color space                 : YUV
    Chroma subsampling          : 4:2:0
    Bit depth                   : 8 bits
    Scan type                   : Progressive
    Bits/(Pixel*Frame)          : 0.040
    Stream size                 : 888 MiB (88%)
    Title                       : ISO Media file produced by Google Inc. Created on: 08/11/2018.
    Encoded date                : UTC 2018-08-11 16:26:08
    Tagged date                 : UTC 2018-08-11 16:26:08
    Color range                 : Limited
    Color primaries             : BT.709
    Transfer characteristics    : BT.709
    Matrix coefficients         : BT.709
    
    Audio
    ID                          : 2
    Format                      : AAC
    Format/Info                 : Advanced Audio Codec
    Format profile              : LC
    Codec ID                    : 40
    Duration                    : 2 h 14 min
    Bit rate mode               : Variable
    Bit rate                    : 126 kb/s
    Channel(s)                  : 2 channels
    Channel positions           : Front: L R
    Sampling rate               : 44.1 kHz
    Frame rate                  : 43.066 FPS (1024 SPF)
    Compression mode            : Lossy
    Stream size                 : 121 MiB (12%)
    Title                       : ISO Media file produced by Google Inc. Created on: 08/11/2018.
    Language                    : English
    Encoded date                : UTC 2018-08-11 16:26:08
    Tagged date                 : UTC 2018-08-11 16:26:08
    
    


    Chal Chala Chal (2009) 720p - HD-DVDRip - AVC - AAC-Bollywooda2z

    SINGLE DIRECT FAST LINKS
    
    http://www.heroupload.us/83201a237c1c49f8/Chal.Chala.Chal.2009.720p-BollywoodA2z.mp4


    
    http://filefloater.com/1L1w/Chal.Chala.Chal.2009.720p-BollywoodA2z.mp4

    Comments

    Add Comment!


    Add comment

    Name:*
    E-Mail:
    Comment:
    • winkwinkedsmileam
      belayfeelfellowlaughing
      lollovenorecourse
      requestsadtonguewassat
      cryingwhatbullyangry
    Security Code: *
    reload, if the code cannot be seen