a b c d e f g h i j k l m n o p q r s t u v w x y z 0-9

Sanju (2018) 1080p - WEB-DL - AVC - DD5 1 - MSUBS-HotStar

  • Views: 146
  • Author: stev
  • Date: 15-10-2018, 22:58
  • Category: Bollywood BluRay - Full HD
  • Rating:
    Description of the movie:
    Sanju (2018) 1080p - WEB-DL - AVC - DD5 1 - MSUBS-HotStar





    Format                      : Matroska
    Format version              : Version 4 / Version 2
    File size                   : 6.26 GiB
    Duration                    : 2 h 38 min
    Overall bit rate            : 5 642 kb/s
    Movie name                  : Tellytorrent
    Encoded date                : UTC 2018-10-14 18:59:39
    Writing application         : mkvmerge v27.0.0 ('Metropolis') 64-bit
    Writing library             : libebml v1.3.6 + libmatroska v1.4.9
    
    Video
    ID                          : 1
    Format                      : AVC
    Format/Info                 : Advanced Video Codec
    Format profile              : Main@L4
    Format settings, CABAC      : Yes
    Format settings, RefFrames  : 1 frame
    Codec ID                    : V_MPEG4/ISO/AVC
    Duration                    : 2 h 38 min
    Bit rate mode               : Constant
    Bit rate                    : 4 500 kb/s
    Width                       : 1 920 pixels
    Height                      : 1 080 pixels
    Display aspect ratio        : 16:9
    Frame rate mode             : Constant
    Frame rate                  : 24.000 FPS
    Color space                 : YUV
    Chroma subsampling          : 4:2:0
    Bit depth                   : 8 bits
    Scan type                   : Progressive
    Bits/(Pixel*Frame)          : 0.090
    Stream size                 : 4.98 GiB (80%)
    Default                     : Yes
    Forced                      : No
    
    Audio #1
    ID                          : 2
    Format                      : AAC
    Format/Info                 : Advanced Audio Codec
    Format profile              : LC
    Codec ID                    : A_AAC
    Duration                    : 2 h 38 min
    Bit rate                    : 61.4 kb/s
    Channel(s)                  : 2 channels
    Channel positions           : Front: L R
    Sampling rate               : 48.0 kHz
    Frame rate                  : 46.875 FPS (1024 SPF)
    Compression mode            : Lossy
    Delay relative to video     : -33 ms
    Stream size                 : 69.8 MiB (1%)
    Language                    : English
    Default                     : Yes
    Forced                      : No
    
    Audio #2
    ID                          : 3
    Format                      : E-AC-3
    Format/Info                 : Enhanced Audio Coding 3
    Format settings, Endianness : Big
    Codec ID                    : A_EAC3
    Duration                    : 2 h 38 min
    Bit rate mode               : Constant
    Bit rate                    : 640 kb/s
    Channel(s)                  : 6 channels
    Channel positions           : Front: L C R, Side: L R, LFE
    Sampling rate               : 48.0 kHz
    Frame rate                  : 187.500 FPS (256 SPF)
    Compression mode            : Lossy
    Delay relative to video     : -33 ms
    Stream size                 : 728 MiB (11%)
    Service kind                : Complete Main
    Default                     : No
    Forced                      : No
    
    Audio #3
    ID                          : 4
    Format                      : E-AC-3
    Format/Info                 : Enhanced Audio Coding 3
    Format settings, Endianness : Big
    Codec ID                    : A_EAC3
    Duration                    : 2 h 38 min
    Bit rate mode               : Constant
    Bit rate                    : 448 kb/s
    Channel(s)                  : 6 channels
    Channel positions           : Front: L C R, Side: L R, LFE
    Sampling rate               : 48.0 kHz
    Frame rate                  : 187.500 FPS (256 SPF)
    Compression mode            : Lossy
    Delay relative to video     : -33 ms
    Stream size                 : 509 MiB (8%)
    Service kind                : Complete Main
    Default                     : No
    Forced                      : No


    Sanju (2018) 1080p - WEB-DL - AVC - DD5 1 - MSUBS-HotStarSanju (2018) 1080p - WEB-DL - AVC - DD5 1 - MSUBS-HotStarSanju (2018) 1080p - WEB-DL - AVC - DD5 1 - MSUBS-HotStarSanju (2018) 1080p - WEB-DL - AVC - DD5 1 - MSUBS-HotStarSanju (2018) 1080p - WEB-DL - AVC - DD5 1 - MSUBS-HotStarSanju (2018) 1080p - WEB-DL - AVC - DD5 1 - MSUBS-HotStarSanju (2018) 1080p - WEB-DL - AVC - DD5 1 - MSUBS-HotStarSanju (2018) 1080p - WEB-DL - AVC - DD5 1 - MSUBS-HotStarSanju (2018) 1080p - WEB-DL - AVC - DD5 1 - MSUBS-HotStarSanju (2018) 1080p - WEB-DL - AVC - DD5 1 - MSUBS-HotStar



    SINGLE DIRECT FAST LINKS

    http://www.heroupload.us/21a3af6e3a497d97/Sanju.2018.1080p.WEB-DL.AVC.DD5.1.MSUBS-HotStar.mkv


    1GB LINKS
    
    http://www.heroupload.us/e62459bcc9caeb2a/Sanju.2018.1080p.WEB-DL.AVC.DD5.1.MSUBS-HotStar.part1.rar
    http://www.heroupload.us/0d3504b393c27376/Sanju.2018.1080p.WEB-DL.AVC.DD5.1.MSUBS-HotStar.part2.rar
    http://www.heroupload.us/47ec17098a93f3c1/Sanju.2018.1080p.WEB-DL.AVC.DD5.1.MSUBS-HotStar.part3.rar
    http://www.heroupload.us/97e4549cc61d5615/Sanju.2018.1080p.WEB-DL.AVC.DD5.1.MSUBS-HotStar.part4.rar
    http://www.heroupload.us/751da6c71a857c46/Sanju.2018.1080p.WEB-DL.AVC.DD5.1.MSUBS-HotStar.part5.rar
    http://www.heroupload.us/c5880265374200c9/Sanju.2018.1080p.WEB-DL.AVC.DD5.1.MSUBS-HotStar.part6.rar
    http://www.heroupload.us/92dc24c41dea430d/Sanju.2018.1080p.WEB-DL.AVC.DD5.1.MSUBS-HotStar.part7.rar


    
    http://filefloater.com/2B2M/Sanju.2018.1080p.WEB-DL.AVC.DD5.1.MSUBS-HotStar.part1.rar
    http://filefloater.com/2B2N/Sanju.2018.1080p.WEB-DL.AVC.DD5.1.MSUBS-HotStar.part2.rar
    http://filefloater.com/1L10/Sanju.2018.1080p.WEB-DL.AVC.DD5.1.MSUBS-HotStar.part3.rar
    http://filefloater.com/1L11/Sanju.2018.1080p.WEB-DL.AVC.DD5.1.MSUBS-HotStar.part4.rar
    http://filefloater.com/1L12/Sanju.2018.1080p.WEB-DL.AVC.DD5.1.MSUBS-HotStar.part5.rar
    http://filefloater.com/1L13/Sanju.2018.1080p.WEB-DL.AVC.DD5.1.MSUBS-HotStar.part6.rar
    http://filefloater.com/1L14/Sanju.2018.1080p.WEB-DL.AVC.DD5.1.MSUBS-HotStar.part7.rar
    


    Buy Premium From My Links & Support Me

    Comments

    Add Comment!


    Add comment

    Name:*
    E-Mail:
    Comment:
    • winkwinkedsmileam
      belayfeelfellowlaughing
      lollovenorecourse
      requestsadtonguewassat
      cryingwhatbullyangry
    Security Code: *
    reload, if the code cannot be seen