a b c d e f g h i j k l m n o p q r s t u v w x y z 0-9

Kittu Unnadu Jagratha (2017) UNCUT 720p HDRip x264 [Dual Audio][Hindi+Telugu] - DM

  • Views: 140
  • Author: stev
  • Date: 11-10-2018, 13:56
  • Category: South Indian Hindi Dub Movies
  • Rating:
    Description of the movie:
    Kittu Unnadu Jagratha (2017) UNCUT 720p HDRip x264 [Dual Audio][Hindi+Telugu] - DM





    INFO
    
    
    General
    Format : Matroska
    Format version : Version 4 / Version 2
    File size : 1.60 GiB
    Duration : 2 h 12 min
    Overall bit rate : 1 728 kb/s
    
    Video
    ID : 1
    Format : AVC
    Format/Info : Advanced Video Codec
    Format profile : High@L3.1
    Format settings : CABAC / 4 Ref Frames
    Format settings, CABAC : Yes
    Format settings, ReFrames : 4 frames
    Codec ID : V_MPEG4/ISO/AVC
    Duration : 2 h 12 min
    Bit rate : 1 484 kb/s
    Width : 1 280 pixels
    Height : 540 pixels
    Display aspect ratio : 2.40:1
    Frame rate mode : Constant
    Frame rate : 25.000 FPS
    Color space : YUV
    Chroma subsampling : 4:2:0
    Bit depth : 8 bits
    
    Audio #1
    ID : 2
    Format : MPEG Audio
    Format version : Version 1
    Format profile : Layer 3
    Format settings : Joint stereo / MS Stereo
    Codec ID : A_MPEG/L3
    Codec ID/Hint : MP3
    Duration : 2 h 12 min
    Bit rate mode : Constant
    Bit rate : 160 kb/s
    Channel(s) : 2 channels
    Sampling rate : 48.0 kHz
    Frame rate : 41.667 FPS (1152 SPF)
    Compression mode : Lossy
    Delay relative to video : -23 ms
    Stream size : 152 MiB (9%)
    Writing library : LAME3.98.2
    Language : Hindi
    Default : Yes
    Forced : Yes
    
    Audio #2
    ID : 3
    Format : AAC
    Format/Info : Advanced Audio Codec
    Format profile : LC
    Codec ID : A_AAC-2
    Duration : 2 h 12 min
    Bit rate : 96.0 kb/s
    Channel(s) : 2 channels
    Channel positions : Front: L R
    Sampling rate : 44.1 kHz
    Frame rate : 43.066 FPS (1024 SPF)
    Compression mode : Lossy
    Delay relative to video : -23 ms
    Stream size : 91.1 MiB (6%)
    Language : Telugu
    Default : No
    Forced : No 





    Kittu Unnadu Jagratha (2017) UNCUT 720p HDRip x264 [Dual Audio][Hindi+Telugu] - DM
    Kittu Unnadu Jagratha (2017) UNCUT 720p HDRip x264 [Dual Audio][Hindi+Telugu] - DM
    Kittu Unnadu Jagratha (2017) UNCUT 720p HDRip x264 [Dual Audio][Hindi+Telugu] - DM
    Kittu Unnadu Jagratha (2017) UNCUT 720p HDRip x264 [Dual Audio][Hindi+Telugu] - DM
    Kittu Unnadu Jagratha (2017) UNCUT 720p HDRip x264 [Dual Audio][Hindi+Telugu] - DM
    Kittu Unnadu Jagratha (2017) UNCUT 720p HDRip x264 [Dual Audio][Hindi+Telugu] - DM
    Kittu Unnadu Jagratha (2017) UNCUT 720p HDRip x264 [Dual Audio][Hindi+Telugu] - DM
    Kittu Unnadu Jagratha (2017) UNCUT 720p HDRip x264 [Dual Audio][Hindi+Telugu] - DM
    Kittu Unnadu Jagratha (2017) UNCUT 720p HDRip x264 [Dual Audio][Hindi+Telugu] - DM
    Kittu Unnadu Jagratha (2017) UNCUT 720p HDRip x264 [Dual Audio][Hindi+Telugu] - DM
    Kittu Unnadu Jagratha (2017) UNCUT 720p HDRip x264 [Dual Audio][Hindi+Telugu] - DM
    Kittu Unnadu Jagratha (2017) UNCUT 720p HDRip x264 [Dual Audio][Hindi+Telugu] - DM
    Kittu Unnadu Jagratha (2017) UNCUT 720p HDRip x264 [Dual Audio][Hindi+Telugu] - DM
    Kittu Unnadu Jagratha (2017) UNCUT 720p HDRip x264 [Dual Audio][Hindi+Telugu] - DM

    NOTE - 6 Min Miss In Hindi Audio that's Why added Telugu Audio ..

    SINGLE DIRECT FAST LINKS
    
    http://www.heroupload.us/5c90da22a13c3a25/Kittu.Unnadu.Jagratha.2017.UNCUT.720p.HDRip.x264.Dual.Audio.Hindi.2.0+Telugu.2.0-DM.mkv


    
    http://filefloater.com/2B0b/Kittu.Unnadu.Jagratha.2017.UNCUT.720p.HDRip.x264.Dual.Audio.Hindi.2.0+Telugu.2.0-DM.mkv



    Buy Premium From My Links & Support Me

    Comments

    Add Comment!


    Add comment

    Name:*
    E-Mail:
    Comment:
    • winkwinkedsmileam
      belayfeelfellowlaughing
      lollovenorecourse
      requestsadtonguewassat
      cryingwhatbullyangry
    Security Code: *
    reload, if the code cannot be seen