a b c d e f g h i j k l m n o p q r s t u v w x y z 0-9

Ant-Man and the Wasp (2018) 720p HDRip x264 [Multi Line Audios][Hindi+Telugu+Tam+Eng]

  • Views: 202
  • Author: stev
  • Date: 3-10-2018, 06:54
  • Category: English Movies Dubbed in Hindi
  • Rating:
    Description of the movie:
    Ant-Man and the Wasp (2018) 720p HDRip x264 [Multi Line Audios][Hindi+Telugu+Tam+Eng]





    Format                      : Matroska
    Format version              : Version 4 / Version 2
    File size                   : 1 023 MiB
    Duration                    : 1 h 58 min
    Overall bit rate mode       : Variable
    Overall bit rate            : 1 211 kb/s
    Encoded date                : UTC 2018-10-02 06:36:21
    Writing application         : mkvmerge v7.1.0 ('Good Love') 32bit built on Jul 27 2014 12:59:18
    Writing library             : libebml v1.3.0 + libmatroska v1.4.1
    
    Video
    ID                          : 1
    Format                      : AVC
    Format/Info                 : Advanced Video Codec
    Format profile              : [email protected]
    Format settings, CABAC      : Yes
    Format settings, RefFrames  : 4 frames
    Codec ID                    : V_MPEG4/ISO/AVC
    Duration                    : 1 h 58 min
    Bit rate                    : 846 kb/s
    Width                       : 1 280 pixels
    Height                      : 536 pixels
    Display aspect ratio        : 2.40:1
    Frame rate mode             : Constant
    Frame rate                  : 23.976 (24000/1001) FPS
    Color space                 : YUV
    Chroma subsampling          : 4:2:0
    Bit depth                   : 8 bits
    Scan type                   : Progressive
    Bits/(Pixel*Frame)          : 0.051
    Stream size                 : 714 MiB (70%)
    Writing library             : x264 core 155 r2901 7d0ff22
    Encoding settings           : cabac=1 / ref=3 / deblock=1:0:0 / analyse=0x3:0x113 / me=hex / subme=7 / psy=1 / psy_rd=1.00:0.00 / mixed_ref=1 / me_range=16 / chroma_me=1 / trellis=1 / 8x8dct=1 / cqm=0 / deadzone=21,11 / fast_pskip=1 / chroma_qp_offset=-2 / threads=17 / lookahead_threads=2 / sliced_threads=0 / nr=0 / decimate=1 / interlaced=0 / bluray_compat=0 / constrained_intra=0 / bframes=3 / b_pyramid=2 / b_adapt=1 / b_bias=0 / direct=1 / weightb=1 / open_gop=0 / weightp=2 / keyint=240 / keyint_min=23 / scenecut=40 / intra_refresh=0 / rc_lookahead=40 / rc=2pass / mbtree=1 / bitrate=846 / ratetol=1.0 / qcomp=0.60 / qpmin=0 / qpmax=69 / qpstep=4 / cplxblur=20.0 / qblur=0.5 / ip_ratio=1.40 / aq=1:1.00
    Language                    : English
    Default                     : Yes
    Forced                      : No
    
    Audio #1
    ID                          : 2
    Format                      : MPEG Audio
    Format version              : Version 1
    Format profile              : Layer 3
    Mode                        : Joint stereo
    Mode extension              : MS Stereo
    Codec ID                    : A_MPEG/L3
    Codec ID/Hint               : MP3
    Duration                    : 1 h 58 min
    Bit rate mode               : Variable
    Bit rate                    : 96.0 kb/s
    Channel(s)                  : 2 channels
    Sampling rate               : 44.1 kHz
    Frame rate                  : 38.281 FPS (1152 SPF)
    Compression mode            : Lossy
    Stream size                 : 80.8 MiB (8%)
    Writing library             : LAME3.99r
    Encoding settings           : -m j -V 4 -q 3 -lowpass 15.1 --abr 96
    Language                    : Telugu
    Default                     : Yes
    Forced                      : No
    
    Audio #2
    ID                          : 3
    Format                      : MPEG Audio
    Format version              : Version 1
    Format profile              : Layer 3
    Mode                        : Joint stereo
    Mode extension              : MS Stereo
    Codec ID                    : A_MPEG/L3
    Codec ID/Hint               : MP3
    Duration                    : 1 h 58 min
    Bit rate mode               : Variable
    Bit rate                    : 84.1 kb/s
    Nominal bit rate            : 96.0 kb/s
    Channel(s)                  : 2 channels
    Sampling rate               : 44.1 kHz
    Frame rate                  : 38.281 FPS (1152 SPF)
    Compression mode            : Lossy
    Stream size                 : 71.0 MiB (7%)
    Writing library             : LAME3.99r
    Encoding settings           : -m j -V 4 -q 3 -lowpass 15.1 --abr 96
    Language                    : Tamil
    Default                     : No
    Forced                      : No
    
    Audio #3
    ID                          : 4
    Format                      : MPEG Audio
    Format version              : Version 1
    Format profile              : Layer 3
    Mode                        : Joint stereo
    Mode extension              : MS Stereo
    Codec ID                    : A_MPEG/L3
    Codec ID/Hint               : MP3
    Duration                    : 1 h 58 min
    Bit rate mode               : Variable
    Bit rate                    : 96.0 kb/s
    Channel(s)                  : 2 channels
    Sampling rate               : 44.1 kHz
    Frame rate                  : 38.281 FPS (1152 SPF)
    Compression mode            : Lossy
    Stream size                 : 83.3 MiB (8%)
    Writing library             : LAME3.99r
    Encoding settings           : -m j -V 4 -q 3 -lowpass 15.1 --abr 96
    Language                    : Hindi
    Default                     : No
    Forced                      : No
    
    Audio #4
    ID                          : 5
    Format                      : MPEG Audio
    Format version              : Version 1
    Format profile              : Layer 3
    Mode                        : Joint stereo
    Mode extension              : MS Stereo
    Codec ID                    : A_MPEG/L3
    Codec ID/Hint               : MP3
    Duration                    : 1 h 58 min
    Bit rate mode               : Variable
    Bit rate                    : 83.2 kb/s
    Nominal bit rate            : 96.0 kb/s
    Channel(s)                  : 2 channels
    Sampling rate               : 44.1 kHz
    Frame rate                  : 38.281 FPS (1152 SPF)
    Compression mode            : Lossy
    Stream size                 : 70.3 MiB (7%)
    Writing library             : LAME3.99r
    Encoding settings           : -m j -V 4 -q 3 -lowpass 15.1 --abr 96
    Language                    : English
    Default                     : No
    Forced                      : No
    
    Text
    ID                          : 6
    Format                      : UTF-8
    Codec ID                    : S_TEXT/UTF8
    Codec ID/Info               : UTF-8 Plain Text
    Duration                    : 1 h 50 min
    Bit rate                    : 65 b/s
    Count of elements           : 1930
    Stream size                 : 53.5 KiB (0%)
    Language                    : English
    Default                     : Yes
    Forced                      : No
    
    



    Ant-Man and the Wasp (2018) 720p HDRip x264 [Multi Line Audios][Hindi+Telugu+Tam+Eng]Ant-Man and the Wasp (2018) 720p HDRip x264 [Multi Line Audios][Hindi+Telugu+Tam+Eng]Ant-Man and the Wasp (2018) 720p HDRip x264 [Multi Line Audios][Hindi+Telugu+Tam+Eng]Ant-Man and the Wasp (2018) 720p HDRip x264 [Multi Line Audios][Hindi+Telugu+Tam+Eng]Ant-Man and the Wasp (2018) 720p HDRip x264 [Multi Line Audios][Hindi+Telugu+Tam+Eng]Ant-Man and the Wasp (2018) 720p HDRip x264 [Multi Line Audios][Hindi+Telugu+Tam+Eng]Ant-Man and the Wasp (2018) 720p HDRip x264 [Multi Line Audios][Hindi+Telugu+Tam+Eng]

    Line Audios
    SINGLE DIRECT FAST LINKS
    
    http://www.heroupload.us/5bc57a014cd0a92e/Ant-Man.and.the.Wasp.2018.HDRip.720p.Line.Telugu+Tamil+Hindi+English.mkv
    http://www.heroupload.us/d802a38cbc58abc1/Ant-Man.and.the.Wasp.2018.HDRip.720p.Line.Telugu+Tamil+Hindi+English.srt


    
    http://filefloater.com/1KU9/Ant-Man.and.the.Wasp.2018.HDRip.720p.Line.Telugu+Tamil+Hindi+English.mkv
    http://filefloater.com/30WS/Ant-Man.and.the.Wasp.2018.HDRip.720p.Line.Telugu+Tamil+Hindi+English.srt



    Buy Premium From My Links & Support Me

    Comments

    Add Comment!


    Add comment

    Name:*
    E-Mail:
    Comment:
    • winkwinkedsmileam
      belayfeelfellowlaughing
      lollovenorecourse
      requestsadtonguewassat
      cryingwhatbullyangry
    Security Code: *
    reload, if the code cannot be seen