a b c d e f g h i j k l m n o p q r s t u v w x y z 0-9

Mulk (2018) 720p - WEB-HD - AVC - AAC-TT Exclusive

  • Views: 65
  • Author: stev
  • Date: 2-10-2018, 12:05
  • Category: Bollywood BluRay - Full HD
  • Rating:
    Description of the movie:
    Mulk (2018) 720p - WEB-HD - AVC - AAC-TT Exclusive





    Format                      : MPEG-4
    Format profile              : Base Media
    Codec ID                    : isom (isom/iso2/avc1/mp41)
    File size                   : 2.41 GiB
    Duration                    : 2 h 14 min
    Overall bit rate            : 2 557 kb/s
    Writing application         : Lavf58.17.103
    
    Video
    ID                          : 1
    Format                      : AVC
    Format/Info                 : Advanced Video Codec
    Format profile              : High@L3.1
    Format settings, CABAC      : Yes
    Format settings, RefFrames  : 4 frames
    Format settings, GOP        : M=4, N=50
    Codec ID                    : avc1
    Codec ID/Info               : Advanced Video Coding
    Duration                    : 2 h 14 min
    Bit rate                    : 2 500 kb/s
    Width                       : 1 280 pixels
    Height                      : 720 pixels
    Display aspect ratio        : 16:9
    Frame rate mode             : Constant
    Frame rate                  : 25.000 FPS
    Color space                 : YUV
    Chroma subsampling          : 4:2:0
    Bit depth                   : 8 bits
    Scan type                   : Progressive
    Bits/(Pixel*Frame)          : 0.109
    Stream size                 : 2.34 GiB (97%)
    Writing library             : x264 core 152 r2854 e9a5903
    Encoding settings           : cabac=1 / ref=3 / deblock=1:0:0 / analyse=0x3:0x113 / me=hex / subme=7 / psy=1 / psy_rd=1.00:0.00 / mixed_ref=1 / me_range=16 / chroma_me=1 / trellis=1 / 8x8dct=1 / cqm=0 / deadzone=21,11 / fast_pskip=1 / chroma_qp_offset=-2 / threads=22 / lookahead_threads=3 / sliced_threads=0 / nr=0 / decimate=1 / interlaced=0 / bluray_compat=0 / constrained_intra=0 / bframes=3 / b_pyramid=2 / b_adapt=1 / b_bias=0 / direct=1 / weightb=1 / open_gop=0 / weightp=2 / keyint=50 / keyint_min=26 / scenecut=0 / intra_refresh=0 / rc_lookahead=40 / rc=abr / mbtree=1 / bitrate=2500 / ratetol=1.0 / qcomp=0.60 / qpmin=0 / qpmax=69 / qpstep=4 / vbv_maxrate=3250 / vbv_bufsize=3750 / nal_hrd=none / filler=0 / ip_ratio=1.40 / aq=1:1.00
    
    Audio
    ID                          : 2
    Format                      : AAC
    Format/Info                 : Advanced Audio Codec
    Format profile              : LC
    Codec ID                    : 40
    Duration                    : 2 h 14 min
    Bit rate mode               : Constant
    Bit rate                    : 64.2 kb/s
    Channel(s)                  : 2 channels
    Channel positions           : Front: L R
    Sampling rate               : 48.0 kHz
    Frame rate                  : 46.875 FPS (1024 SPF)
    Compression mode            : Lossy
    Stream size                 : 61.8 MiB (3%)
    Default                     : Yes
    Alternate group             : 1
    
    


    Mulk (2018) 720p - WEB-HD - AVC - AAC-TT ExclusiveMulk (2018) 720p - WEB-HD - AVC - AAC-TT ExclusiveMulk (2018) 720p - WEB-HD - AVC - AAC-TT ExclusiveMulk (2018) 720p - WEB-HD - AVC - AAC-TT ExclusiveMulk (2018) 720p - WEB-HD - AVC - AAC-TT ExclusiveMulk (2018) 720p - WEB-HD - AVC - AAC-TT ExclusiveMulk (2018) 720p - WEB-HD - AVC - AAC-TT ExclusiveMulk (2018) 720p - WEB-HD - AVC - AAC-TT ExclusiveMulk (2018) 720p - WEB-HD - AVC - AAC-TT ExclusiveMulk (2018) 720p - WEB-HD - AVC - AAC-TT Exclusive



    SINGLE DIRECT FAST LINKS
    http://www.heroupload.us/071528230efd14be/Mulk.2018.Hindi.WEB-HD.720p.AVC.AAC-TT.mp4


    http://filefloater.com/30WA/Mulk.2018.Hindi.WEB-HD.720p.AVC.AAC-TT.mp4

    700MB LINKS
    
    http://www.heroupload.us/a0f1aa0eb53748cc/Mulk.2018.Hindi.WEB-HD.720p.AVC.AAC-TT.part1.rar
    http://www.heroupload.us/189052a5ea780117/Mulk.2018.Hindi.WEB-HD.720p.AVC.AAC-TT.part2.rar
    http://www.heroupload.us/27313e10f349ef15/Mulk.2018.Hindi.WEB-HD.720p.AVC.AAC-TT.part3.rar
    http://www.heroupload.us/49408eab0979d9e8/Mulk.2018.Hindi.WEB-HD.720p.AVC.AAC-TT.part4.rar


    
    http://filefloater.com/30WB/Mulk.2018.Hindi.WEB-HD.720p.AVC.AAC-TT.part1.rar
    http://filefloater.com/30WC/Mulk.2018.Hindi.WEB-HD.720p.AVC.AAC-TT.part2.rar
    http://filefloater.com/30WD/Mulk.2018.Hindi.WEB-HD.720p.AVC.AAC-TT.part3.rar
    http://filefloater.com/2AVK/Mulk.2018.Hindi.WEB-HD.720p.AVC.AAC-TT.part4.rar
    


    Buy Premium From My Links & Support Me

    Comments

    Add Comment!


    Add comment

    Name:*
    E-Mail:
    Comment:
    • winkwinkedsmileam
      belayfeelfellowlaughing
      lollovenorecourse
      requestsadtonguewassat
      cryingwhatbullyangry
    Security Code: *
    reload, if the code cannot be seen