a b c d e f g h i j k l m n o p q r s t u v w x y z 0-9

Hotel Transylvania 3 (2018) 720p BluRay x264 [Multi Line Audios][Hindi+Tamil+English]

  • Views: 22
  • Author: stev
  • Date: 28-09-2018, 10:20
  • Category: English Movies Dubbed in Hindi
  • Rating:
    Description of the movie:
    Hotel Transylvania 3 (2018) 720p BluRay x264 [Multi Line Audios][Hindi+Tamil+English]




    Format                      : Matroska
    Format version              : Version 4 / Version 2
    File size                   : 1.01 GiB
    Duration                    : 1 h 37 min
    Overall bit rate            : 1 482 kb/s
    Encoded date                : UTC 2018-09-27 04:04:58
    Writing application         : mkvmerge v7.8.0 ('River Man') 64bit built on Mar 27 2015 16:31:37
    Writing library             : libebml v1.3.1 + libmatroska v1.4.2
    
    Video
    ID                          : 1
    Format                      : AVC
    Format/Info                 : Advanced Video Codec
    Format profile              : High@L4
    Format settings, CABAC      : Yes
    Format settings, RefFrames  : 5 frames
    Codec ID                    : V_MPEG4/ISO/AVC
    Duration                    : 1 h 37 min
    Bit rate                    : 1 146 kb/s
    Width                       : 1 280 pixels
    Height                      : 692 pixels
    Display aspect ratio        : 1.85:1
    Frame rate mode             : Constant
    Frame rate                  : 23.976 (24000/1001) FPS
    Color space                 : YUV
    Chroma subsampling          : 4:2:0
    Bit depth                   : 8 bits
    Scan type                   : Progressive
    Bits/(Pixel*Frame)          : 0.054
    Stream size                 : 785 MiB (76%)
    Writing library             : x264 core 155 r2901 7d0ff22
    Encoding settings           : cabac=1 / ref=5 / deblock=1:0:0 / analyse=0x3:0x113 / me=hex / subme=8 / psy=1 / psy_rd=1.00:0.00 / mixed_ref=1 / me_range=16 / chroma_me=1 / trellis=2 / 8x8dct=1 / cqm=0 / deadzone=21,11 / fast_pskip=1 / chroma_qp_offset=-2 / threads=12 / lookahead_threads=2 / sliced_threads=0 / nr=0 / decimate=1 / interlaced=0 / bluray_compat=0 / constrained_intra=0 / bframes=3 / b_pyramid=2 / b_adapt=1 / b_bias=0 / direct=3 / weightb=1 / open_gop=0 / weightp=2 / keyint=240 / keyint_min=24 / scenecut=40 / intra_refresh=0 / rc_lookahead=50 / rc=abr / mbtree=1 / bitrate=1146 / ratetol=1.0 / qcomp=0.60 / qpmin=0 / qpmax=69 / qpstep=4 / vbv_maxrate=25000 / vbv_bufsize=31250 / nal_hrd=none / filler=0 / ip_ratio=1.40 / aq=1:1.00
    Language                    : English
    Default                     : Yes
    Forced                      : Yes
    Color range                 : Limited
    Color primaries             : BT.709
    Transfer characteristics    : BT.709
    Matrix coefficients         : BT.709
    
    Audio #1
    ID                          : 2
    Format                      : MPEG Audio
    Format version              : Version 1
    Format profile              : Layer 3
    Mode                        : Joint stereo
    Mode extension              : MS Stereo
    Codec ID                    : A_MPEG/L3
    Codec ID/Hint               : MP3
    Duration                    : 1 h 37 min
    Bit rate mode               : Constant
    Bit rate                    : 128 kb/s
    Channel(s)                  : 2 channels
    Sampling rate               : 48.0 kHz
    Frame rate                  : 41.667 FPS (1152 SPF)
    Compression mode            : Lossy
    Delay relative to video     : -21 ms
    Stream size                 : 89.2 MiB (9%)
    Writing library             : LAME3.99r
    Encoding settings           : -m j -V 4 -q 3 -lowpass 17 -b 128
    Language                    : Tamil
    Default                     : Yes
    Forced                      : Yes
    
    Audio #2
    ID                          : 3
    Format                      : MPEG Audio
    Format version              : Version 1
    Format profile              : Layer 3
    Mode                        : Joint stereo
    Mode extension              : MS Stereo
    Codec ID                    : A_MPEG/L3
    Codec ID/Hint               : MP3
    Duration                    : 1 h 37 min
    Bit rate mode               : Constant
    Bit rate                    : 128 kb/s
    Channel(s)                  : 2 channels
    Sampling rate               : 48.0 kHz
    Frame rate                  : 41.667 FPS (1152 SPF)
    Compression mode            : Lossy
    Delay relative to video     : -21 ms
    Stream size                 : 89.2 MiB (9%)
    Writing library             : LAME3.99r
    Encoding settings           : -m j -V 4 -q 3 -lowpass 17 -b 128
    Language                    : Hindi
    Default                     : No
    Forced                      : No
    
    Audio #3
    ID                          : 4
    Format                      : AAC
    Format/Info                 : Advanced Audio Codec
    Format profile              : LC
    Codec ID                    : A_AAC
    Duration                    : 1 h 37 min
    Bit rate                    : 96.0 kb/s
    Channel(s)                  : 2 channels
    Channel positions           : Front: L R
    Sampling rate               : 48.0 kHz
    Frame rate                  : 46.875 FPS (1024 SPF)
    Compression mode            : Lossy
    Stream size                 : 67.1 MiB (7%)
    Language                    : English
    Default                     : No
    Forced                      : No
    
    Text
    ID                          : 5
    Format                      : UTF-8
    Codec ID                    : S_TEXT/UTF8
    Codec ID/Info               : UTF-8 Plain Text
    Duration                    : 1 h 30 min
    Bit rate                    : 52 b/s
    Count of elements           : 1295
    Stream size                 : 35.1 KiB (0%)
    Language                    : English
    Default                     : Yes

    Hotel Transylvania 3 (2018) 720p BluRay x264 [Multi Line Audios][Hindi+Tamil+English]Hotel Transylvania 3 (2018) 720p BluRay x264 [Multi Line Audios][Hindi+Tamil+English]Hotel Transylvania 3 (2018) 720p BluRay x264 [Multi Line Audios][Hindi+Tamil+English]Hotel Transylvania 3 (2018) 720p BluRay x264 [Multi Line Audios][Hindi+Tamil+English]Hotel Transylvania 3 (2018) 720p BluRay x264 [Multi Line Audios][Hindi+Tamil+English]

    SINGLE DIRECT FAST LINKS
    
    http://filefloater.com/2AUa/Hotel.Transylvania.3-Summer.Vacation.2018.720p.BDRip.Line.Audios.Tamil+Hindi+English.mkv


    
    http://filefloater.com/2AUa/Hotel.Transylvania.3-Summer.Vacation.2018.720p.BDRip.Line.Audios.Tamil+Hindi+English.mkv



    Buy Premium From My Links & Support Me

    Comments

    Add Comment!


    Add comment

    Name:*
    E-Mail:
    Comment:
    • winkwinkedsmileam
      belayfeelfellowlaughing
      lollovenorecourse
      requestsadtonguewassat
      cryingwhatbullyangry
    Security Code: *
    reload, if the code cannot be seen