a b c d e f g h i j k l m n o p q r s t u v w x y z 0-9

Race 3 (2018) 720p - HDRip - x264 - AAC-Bollywooda2z

  • Views: 139
  • Author: stev
  • Date: 18-09-2018, 21:48
  • Category: R / 2018 / Bollywood DVDRips - HDRips
  • Rating:
    Description of the movie:
    Race 3 (2018) 720p - HDRip - x264 - AAC-Bollywooda2z



    Format                      : Matroska
    Format version              : Version 2
    File size                   : 1.42 GiB
    Duration                    : 2 h 38 min
    Overall bit rate            : 1 280 kb/s
    Encoded date                : UTC 2018-08-22 22:52:53
    Writing application         : mkvmerge v22.0.0 ('At The End Of The World') 64-bit
    Writing library             : libebml v1.3.5 + libmatroska v1.4.8
    
    Video
    ID                          : 1
    Format                      : AVC
    Format/Info                 : Advanced Video Codec
    Format profile              : High@L4
    Format settings, CABAC      : Yes
    Format settings, RefFrames  : 4 frames
    Codec ID                    : V_MPEG4/ISO/AVC
    Duration                    : 2 h 38 min
    Bit rate                    : 1 182 kb/s
    Width                       : 1 280 pixels
    Height                      : 544 pixels
    Display aspect ratio        : 2.35:1
    Frame rate mode             : Constant
    Frame rate                  : 23.976 (24000/1001) FPS
    Color space                 : YUV
    Chroma subsampling          : 4:2:0
    Bit depth                   : 8 bits
    Scan type                   : Progressive
    Bits/(Pixel*Frame)          : 0.071
    Stream size                 : 1.31 GiB (92%)
    Writing library             : x264 core 155 r2901 7d0ff22
    Encoding settings           : cabac=1 / ref=5 / deblock=1:1:1 / analyse=0x3:0x133 / me=umh / subme=7 / psy=1 / psy_rd=1.00:0.00 / mixed_ref=1 / me_range=16 / chroma_me=1 / trellis=2 / 8x8dct=1 / cqm=0 / deadzone=21,11 / fast_pskip=1 / chroma_qp_offset=-2 / threads=16 / lookahead_threads=2 / sliced_threads=0 / nr=0 / decimate=1 / interlaced=0 / bluray_compat=0 / constrained_intra=0 / bframes=3 / b_pyramid=1 / b_adapt=1 / b_bias=0 / direct=3 / weightb=1 / open_gop=0 / weightp=2 / keyint=230 / keyint_min=23 / scenecut=40 / intra_refresh=0 / rc_lookahead=40 / rc=2pass / mbtree=1 / bitrate=1182 / ratetol=1.0 / qcomp=0.60 / qpmin=10 / qpmax=51 / qpstep=4 / cplxblur=20.0 / qblur=0.5 / vbv_maxrate=20000 / vbv_bufsize=25000 / nal_hrd=none / filler=0 / ip_ratio=1.40 / aq=1:1.00
    Default                     : Yes
    Forced                      : No
    
    Audio
    ID                          : 2
    Format                      : AAC
    Format/Info                 : Advanced Audio Codec
    Format profile              : LC
    Codec ID                    : A_AAC
    Duration                    : 2 h 38 min
    Bit rate                    : 96.0 kb/s
    Channel(s)                  : 2 channels
    Channel positions           : Front: L R
    Sampling rate               : 48.0 kHz
    Frame rate                  : 46.875 FPS (1024 SPF)
    Compression mode            : Lossy
    Delay relative to video     : 9 ms
    Stream size                 : 109 MiB (7%)
    Language                    : Hindi
    Default                     : Yes
    Forced                      : No
    
    

    Race 3 (2018) 720p - HDRip - x264 - AAC-Bollywooda2zRace 3 (2018) 720p - HDRip - x264 - AAC-Bollywooda2zRace 3 (2018) 720p - HDRip - x264 - AAC-Bollywooda2zRace 3 (2018) 720p - HDRip - x264 - AAC-Bollywooda2z
    SINGLE DIRECT FAST LINKS
    http://www.heroupload.us/6489cb689cb707fd/Race.3.2018.mkv


    http://filefloater.com/2AR9/Race.3.2018.mkv



    Buy Premium From My Links & Support Me

    Comments

    Add Comment!


    Add comment

    Name:*
    E-Mail:
    Comment:
    • winkwinkedsmileam
      belayfeelfellowlaughing
      lollovenorecourse
      requestsadtonguewassat
      cryingwhatbullyangry
    Security Code: *
    reload, if the code cannot be seen